<?xml version="1.0" standalone="no"?>
<!DOCTYPE svg PUBLIC "-//W3C//DTD SVG 1.1//EN" "http://www.w3.org/Graphics/SVG/1.1/DTD/svg11.dtd">
<svg xmlns="http://www.w3.org/2000/svg">
<metadata>Generated by Fontastic.me</metadata>
<defs>
<font id="dripicons-weather" horiz-adv-x="512">
<font-face font-family="dripicons-weather" units-per-em="512" ascent="480" descent="-32"/>
<missing-glyph horiz-adv-x="512" />

<glyph unicode="&#97;" d="M353 124l-203 0c-3 0-5 0-8 1-45 7-77 43-77 89 0 45 30 80 74 88 2 9 6 20 11 32 18 35 51 54 93 54 42 0 75-19 93-54 6-11 9-22 11-30l6 0c55 0 94-38 94-90 0-51-40-90-94-90z m-194 45l194 0c34 0 49 23 49 45 0 27-19 45-49 45l-25 0c-12 0-22 9-22 21 0 0-2 18-11 34-10 20-28 29-53 29-57 0-61-56-61-62 0-13-10-22-22-22-30 0-49-18-49-45 0-22 15-45 49-45z"/>
<glyph unicode="&#98;" d="M353 360l-6 0c-2 9-5 19-11 29-19 35-52 54-93 54-42 0-75-19-93-54-5-11-9-22-11-31-44-8-74-43-74-88 0-30 14-57 37-73 10-7 24-5 31 5 8 10 5 24-5 31-11 8-18 22-18 37 0 27 20 45 49 45 13 0 22 9 23 21 0 7 3 63 61 63 25 0 42-10 53-29 9-16 10-34 10-34 1-11 11-21 23-21l25 0c29 0 49-18 49-45 0-22-15-39-37-44-12-2-20-14-18-26 3-11 12-18 22-18 2 0 3 0 5 0 43 9 73 45 73 89-1 51-40 89-95 89z m-175-154c2 0 4 0 5 0 9 0 17 6 20 15l6 24c3 11-3 22-14 25-10 2-21-4-24-15l-7-24c-2-11 4-22 14-25z m151 63c-11 3-22-3-25-14l-6-25c-3-11 3-21 14-24 1-1 3-1 5-1 8 0 17 6 19 15l7 25c2 10-4 21-14 24z m-79-46c-11 3-22-3-24-14l-7-24c-3-11 3-22 14-25 2 0 3 0 5 0 8 0 17 5 19 14l7 25c3 11-4 22-14 24z m-79-45c-11 3-21-4-24-14l-7-25c-3-11 3-21 14-24 2-1 4-1 5-1 9 0 17 6 19 15l7 25c2 10-4 21-14 24z m133 0c-11 3-22-4-24-14l-7-25c-3-11 3-21 14-24 2-1 3-1 5-1 8 0 17 6 19 15l7 25c3 10-3 21-14 24z m-79-46c-11 2-21-4-24-14l-7-25c-3-11 3-22 14-24 2-1 4-1 5-1 9 0 17 6 19 15l7 24c3 11-3 22-14 25z"/>
<glyph unicode="&#99;" d="M353 346l-6 0c-2 9-5 19-11 30-19 35-52 54-93 54-42 0-75-19-93-54-5-11-9-23-11-32-44-8-74-42-74-88 0-29 14-56 37-73 10-7 24-5 31 5 8 11 5 25-5 32-11 8-18 21-18 36 0 27 20 45 49 45 13 0 22 10 23 22 0 6 3 62 61 62 25 0 42-9 53-28 9-17 10-34 10-34 1-12 11-21 23-21l25 0c29 0 49-18 49-45 0-23-15-40-37-44-12-3-20-14-18-27 3-10 12-18 22-18 2 0 3 0 5 1 43 8 73 44 73 88-1 51-40 89-95 89z m-158-91c-10 3-21-3-24-14l-7-24c-3-11 4-22 14-25 2 0 4 0 5 0 9 0 17 5 20 14l6 25c3 10-3 22-14 24z m-24-91c-11 3-21-4-24-14l-7-25c-3-11 3-21 14-24 2-1 4-1 5-1 9 0 17 6 19 15l7 25c2 10-4 21-14 24z m150 41l-24 0 30 43c2 3 3 6 1 9-2 3-4 5-7 5l-62 0c-4 0-7-3-8-6l-34-89c-2-3-1-6 1-8 1-2 4-3 6-3l18 0-23-62c-2-4 0-8 3-10 1-1 3-1 5-1 2 0 4 1 6 3l93 105c3 3 3 6 1 9 0 3-2 5-6 5z"/>
<glyph unicode="&#100;" d="M300 307l-6 0c-3 9-6 19-12 29-18 35-51 54-92 54-42 0-75-19-93-54-6-11-9-22-11-31-45-8-75-43-75-88 0-30 14-57 37-73 11-7 25-5 32 5 7 10 5 24-5 32-11 7-18 21-18 36 0 27 20 45 49 45 12 0 22 9 22 22 0 6 4 62 62 62 24 0 42-10 52-29 10-16 11-33 11-33 0-12 10-22 22-22l25 0c30 0 49-18 49-45 0-22-14-39-36-44-13-2-20-14-18-26 2-11 11-18 22-18 1 0 3 0 4 0 44 9 73 45 73 89 0 50-40 89-94 89z m198 17c-3 5-10 8-15 7-27-2-54 12-67 36-14 23-13 53 3 75 3 5 4 12 1 17-3 6-9 9-15 10-21 1-42-5-60-15-29-17-50-47-54-82-1-9 5-17 15-19 9-1 18 5 19 15 3 24 17 44 37 57 5 3 9 4 14 6-7-27-4-56 11-81 14-25 38-42 65-49-4-3-8-6-13-9-4-3-9-4-14-6-9-3-13-13-10-22 2-7 9-11 15-11 2 0 4 0 5 1 8 2 15 5 21 9 18 10 32 26 42 44 4 6 3 12 0 17z m-356-108c-11 3-22-3-24-14l-7-25c-3-10 3-21 14-24 2-1 3-1 5-1 8 0 17 6 19 15l7 25c3 11-4 21-14 24z m-25-92c-11 3-21-3-24-14l-7-24c-3-11 3-22 14-25 2 0 4 0 5 0 9 0 17 5 19 14l7 25c3 11-3 22-14 24z m151 41l-25 0 31 44c2 3 2 6 1 9-2 3-5 4-8 4l-62 0c-3 0-6-2-8-5l-34-89c-1-3 0-6 1-8 2-2 4-4 7-4l18 0-24-61c-1-4 0-8 4-11 1 0 3-1 4-1 3 0 5 1 6 3l94 106c2 2 3 6 1 9 0 2-3 4-6 4z"/>
<glyph unicode="&#101;" d="M417 313c0 49-39 88-88 88-17 0-35-5-49-15-8-5-9-16-4-24 5-8 15-9 23-4 9 6 20 9 31 9 30 0 54-24 54-54 0-9-3-18-6-25-5-8-2-18 7-22 2-2 5-2 8-2 6 0 12 3 15 9 6 12 9 26 9 40z m-88 115c10 0 17 7 17 16l0 33c0 9-7 16-17 16-9 0-17-7-17-16l0-33c0-9 8-16 17-16z m164-98l-32 0c-10 0-17-7-17-17 0-9 7-16 17-16l32 0c9 0 17 7 17 16 0 10-8 17-17 17z m-71 59c4 0 8 2 12 5l22 23c7 7 7 17 0 24-6 6-17 6-23 0l-23-23c-7-7-7-17 0-24 4-4 7-5 12-5z m12-157c-7 7-18 7-24 0-7-6-7-17 0-23l23-23c3-3 8-5 11-5 5 0 9 2 12 5 7 7 7 18 0 24z m-210 162c4-4 8-5 12-5 5 0 9 1 12 5 7 7 7 17 0 23l-22 23c-7 7-18 7-24 0-7-7-7-17 0-24z m64-115l-8 0c-3 9-6 20-12 32-13 24-39 52-91 52-52 0-77-29-90-53-6-12-9-24-11-33-43-6-74-40-74-85 0-28 14-55 36-70 9-7 22-5 28 4 6 9 4 21-5 28-12 8-19 22-19 38 0 29 21 48 52 48 11 0 19 8 20 19 0 7 4 65 64 65 60 0 65-59 66-66 0-10 9-18 19-18l26 0c31 0 51-19 51-48 0-24-15-42-38-47-11-2-18-12-16-23 2-9 10-16 19-16 1 0 2 0 4 1 42 8 71 43 71 85-1 50-39 87-92 87z m-158-87c-11 3-21-4-24-14l-7-25c-3-11 3-21 14-24 2-1 3-1 5-1 9 0 17 6 19 15l7 25c3 10-3 20-14 24z m-24-92c-11 3-22-3-24-14l-7-25c-3-10 3-21 14-24 2 0 3 0 5 0 8 0 17 5 19 14l7 25c3 11-4 21-14 24z m150 41l-25 0 31 44c2 2 2 6 1 9-2 2-5 4-8 4l-61 0c-3 0-7-2-8-6l-34-89c-1-3-1-6 1-8 2-2 4-3 7-3l18 0-24-62c-2-4 0-8 4-10 1-1 2-1 4-1 2 0 5 1 6 2l94 106c2 2 2 6 1 9-1 3-4 5-7 5z"/>
<glyph unicode="&#102;" d="M372 460c-30 0-59-13-79-37-6-7-5-18 2-24 8-6 18-5 24 3 13 15 32 24 53 24 38 0 69-30 69-68 0-16-6-32-17-45-6-7-5-18 2-23 4-3 8-4 11-4 5 0 10 2 13 6 16 19 24 42 24 66 0 57-46 102-102 102z m-46-145l-6 0c-2 9-5 19-11 30-19 35-52 54-93 54-42 0-75-19-93-54-5-11-9-23-11-32-44-7-74-42-74-88 0-29 14-56 37-73 10-7 24-5 31 6 8 10 5 24-5 31-11 8-18 21-18 36 0 27 20 45 49 45 13 0 22 10 23 22 0 6 3 62 61 62 25 0 42-9 53-28 9-17 10-34 10-34 1-12 11-21 23-21l24 0c30 0 49-18 49-45 0-23-14-40-36-44-13-3-21-14-18-27 2-10 11-18 22-18 1 0 2 0 4 1 43 8 73 44 73 88 0 51-39 89-94 89z m-158-91c-10 3-21-3-24-14l-7-24c-3-11 4-22 14-25 2 0 4 0 5 0 9 0 17 6 20 15l6 24c3 11-3 22-14 24z m-25-91c-10 3-21-3-24-14l-6-24c-3-11 3-22 14-25 1 0 3 0 5 0 8 0 17 5 19 14l7 25c2 10-4 22-15 24z m151 41l-24 0 30 43c2 3 3 6 1 9-2 3-4 5-7 5l-62 0c-4 0-7-3-8-6l-34-89c-2-3-1-5 1-8 1-2 4-3 6-3l18 0-23-62c-2-4 0-8 3-10 1-1 3-1 5-1 2 0 4 1 6 3l93 105c3 3 3 7 1 9 0 3-2 5-6 5z"/>
<glyph unicode="&#103;" d="M125 167c2 0 3 0 5 0 8 0 17 5 19 14l7 25c3 11-4 21-14 24-11 3-22-3-24-14l-7-25c-3-10 3-21 14-24z m150 63c-11 2-21-4-24-15l-7-24c-3-10 4-21 14-24 2 0 4 0 5 0 9 0 17 5 19 14l7 25c2 10-4 21-14 24z m-79-46c-11 3-22-3-24-14l-7-25c-2-10 4-21 14-24 2-1 4-1 6-1 8 0 16 6 19 15l6 25c3 10-4 21-14 24z m-79-46c-10 3-21-3-24-14l-7-24c-3-11 3-22 14-25 2 0 4 0 5 0 9 0 17 5 19 14l7 25c3 11-3 22-14 24z m133 0c-10 3-21-3-24-14l-7-24c-2-11 4-22 14-25 2 0 4 0 6 0 8 0 16 5 19 14l6 25c3 11-3 22-14 24z m-78-45c-11 3-22-4-25-14l-6-25c-3-11 3-21 14-24 1-1 3-1 5-1 8 0 17 6 19 15l7 25c2 10-4 21-14 24z m128 227l-6 0c-3 9-6 19-12 30-18 35-51 54-92 54-42 0-75-19-93-54-6-11-9-23-11-32-45-7-75-42-75-88 0-29 14-56 37-72 11-8 25-6 32 5 7 10 5 24-5 31-11 8-18 21-18 36 0 27 20 45 49 45 12 0 22 10 22 22 0 6 4 63 62 63 24 0 42-10 52-29 10-16 11-34 11-34 0-12 10-21 22-21l25 0c30 0 49-18 49-45 0-23-14-40-36-44-13-2-20-14-18-27 2-10 11-18 22-18 1 0 3 0 4 1 44 8 73 44 73 88 0 51-40 89-94 89z m198 18c-3 5-10 8-15 7-27-2-54 12-67 36-14 24-13 53 3 75 3 5 4 12 1 17-3 6-9 9-15 10-21 1-41-4-60-15-29-17-50-47-54-81-1-9 5-18 15-20 9-1 18 5 19 15 3 24 17 44 37 57 5 3 9 4 14 6-7-27-4-56 11-81 14-25 38-42 65-49-4-3-8-6-13-9-4-3-9-4-14-6-9-3-13-12-10-21 2-8 9-12 15-12 2 0 4 0 5 1 8 2 15 5 21 9 18 11 32 26 42 44 4 5 3 12 0 17z"/>
<glyph unicode="&#104;" d="M114 142c1 0 3 0 5 0 8 0 17 5 19 14l7 25c2 11-4 22-14 24-11 3-22-3-25-14l-6-24c-3-11 3-22 14-25z m149 63c-10 3-21-3-24-14l-7-24c-2-11 4-22 14-25 2 0 4 0 6 0 8 0 16 5 19 14l6 25c3 11-3 22-14 24z m-78-45c-11 3-22-4-25-14l-6-25c-3-11 3-21 14-24 1-1 3-1 5-1 8 0 17 6 19 15l7 25c2 10-4 21-14 24z m-79-46c-11 3-22-3-24-14l-7-25c-3-10 3-21 14-24 2 0 3 0 5 0 8 0 17 5 19 14l7 25c3 10-4 21-14 24z m133 0c-11 3-21-3-24-14l-7-25c-3-10 4-21 14-24 2 0 4 0 5 0 9 0 17 5 19 14l7 25c2 10-4 21-14 24z m-79-46c-11 3-22-3-24-14l-7-25c-2-10 4-21 14-24 2-1 4-1 6-1 8 0 16 6 19 15l6 25c3 11-4 21-14 24z m257 259c0 48-39 88-88 88-17 0-35-5-49-16-8-5-9-15-4-23 5-8 15-10 23-5 9 7 20 9 31 9 30 0 54-24 54-54 0-9-3-17-6-24-5-9-2-19 7-23 2-1 5-2 8-2 6 0 12 4 15 9 6 13 9 27 9 41z m-88 115c10 0 17 7 17 17l0 32c0 9-7 16-17 16-9 0-17-7-17-16l0-32c0-10 8-17 17-17z m164-98l-32 0c-10 0-17-8-17-17 0-10 7-17 17-17l32 0c9 0 17 7 17 17 0 9-8 17-17 17z m-71 59c4 0 8 2 12 5l22 22c7 7 7 18 0 24-6 7-17 7-23 1l-23-23c-7-7-7-17 0-24 4-3 7-5 12-5z m12-157c-7 7-18 7-24 0-7-7-7-18 0-24l23-22c3-4 8-5 11-5 5 0 9 1 12 5 7 6 7 17 0 23z m-210 162c4-3 8-5 12-5 5 0 9 2 12 5 7 7 7 17 0 24l-22 22c-7 7-18 7-25 1-6-7-6-18 0-24z m64-115l-8 0c-3 9-6 20-12 32-13 24-38 52-90 52-52 0-78-29-90-53-6-12-10-24-11-33-44-6-75-40-75-85 0-28 14-55 36-70 9-7 22-5 28 4 6 9 4 21-5 28-12 8-19 22-19 38 0 29 21 48 52 48 11 0 19 8 20 19 0 7 4 65 64 65 60 0 65-59 66-66 0-10 9-18 19-18l26 0c31 0 51-19 51-48 0-24-15-42-38-47-11-2-18-12-16-23 2-9 10-16 19-16 1 0 2 0 4 1 42 8 71 43 71 85-1 51-39 87-92 87z"/>
<glyph unicode="&#105;" d="M372 474c-30 0-59-13-79-37-6-7-5-18 2-23 8-7 18-6 24 2 13 16 32 25 53 25 38 0 69-31 69-69 0-16-6-32-17-45-6-7-5-18 2-23 4-3 8-4 11-4 5 0 10 2 13 6 16 19 24 42 24 66 0 56-46 102-102 102z m-46-145l-6 0c-2 9-5 19-11 30-19 35-52 54-93 54-42 0-75-19-93-54-5-11-9-23-11-32-44-7-74-42-74-88 0-29 14-56 37-72 10-8 24-6 31 5 8 10 5 24-5 31-11 8-18 21-18 36 0 27 20 45 49 45 13 0 22 10 23 22 0 6 3 63 61 63 25 0 42-10 53-29 9-16 10-34 10-34 1-12 11-21 23-21l24 0c30 0 49-18 49-45 0-23-14-40-36-44-13-3-21-15-18-27 2-11 11-18 22-18 1 0 2 0 4 0 43 9 73 45 73 89 0 51-39 89-94 89z m-175-153c2-1 4-1 5-1 9 0 17 6 20 15l6 24c3 11-3 22-14 25-10 2-21-4-24-15l-7-24c-3-11 4-22 14-24z m151 63c-11 2-22-4-25-15l-6-24c-3-11 3-22 14-24 1-1 3-1 5-1 8 0 17 6 19 15l7 24c2 11-4 22-14 25z m-79-46c-11 3-22-3-24-14l-7-25c-3-11 3-21 14-24 2-1 3-1 5-1 8 0 17 6 19 15l6 25c3 10-3 21-13 24z m-80-46c-10 3-21-4-24-14l-6-25c-3-11 3-21 14-24 1-1 3-1 5-1 8 0 17 6 19 15l7 25c2 10-4 21-15 24z m134 0c-11 3-22-4-24-14l-7-25c-3-11 3-21 14-24 2-1 3-1 5-1 8 0 17 6 19 15l7 25c3 10-3 21-14 24z m-79-46c-11 3-21-3-24-14l-7-25c-3-10 3-21 14-24 2 0 4 0 5 0 9 0 17 5 19 14l7 25c3 11-3 21-14 24z"/>
<glyph unicode="&#106;" d="M62 236c12 0 22 10 22 23 0 27 20 45 49 45 13 0 22 9 23 22 0 6 4 62 62 62 24 0 42-9 53-28 9-17 10-34 10-34 0-12 10-22 22-22l26 0c29 0 49-18 49-45 0-12 10-22 22-22 12 0 23 10 23 22 0 53-40 90-94 90l-7 0c-2 9-5 20-11 30-18 35-52 54-93 54-41 0-75-19-93-54-5-11-9-22-11-31-44-9-75-44-75-89 0-13 11-23 23-23z m290-54c0 11-9 20-19 20l-273 0c-10 0-19-9-19-20 0-10 9-19 19-19l273 0c11 0 19 9 19 19z m101-64l-311 0c-10 0-19-9-19-20 0-10 9-19 19-19l311 0c11 0 20 9 20 19 0 12-9 20-20 20z m-51 87l-1 0c-12 0-22-10-22-23 0-12 10-22 22-22l1 0c13 0 23 10 23 22 0 13-10 23-23 23z"/>
<glyph unicode="&#107;" d="M387 156l-253 0c-7 0-12-5-12-12 0-7 5-12 12-12l253 0c6 0 12 5 12 12 0 7-5 12-12 12z m38 45l-338 0c-7 0-12-5-12-12 0-7 5-12 12-12l337 0c7 0 13 5 13 12 0 7-5 12-12 12z m-321 20l304 0c7 0 13 5 13 12 0 7-6 12-13 12l-304 0c-7 0-13-5-13-12 0-7 6-12 13-12z m55 45l194 0c7 0 13 5 13 12 0 7-6 12-13 12l-194 0c-7 0-13-5-13-12 0-7 5-12 13-12z m14 45l140 0c7 0 13 5 13 12 0 7-6 12-13 12l-140 0c-6 0-12-5-12-12 0-7 6-12 12-12z m43 45l54 0c7 0 12 5 12 12 0 7-5 12-12 12l-54 0c-7 0-12-5-12-12 0-7 5-12 12-12z"/>
<glyph unicode="&#108;" d="M324 143c0 11-9 20-20 20l-272 0c-11 0-20-9-20-20 0-11 9-20 20-20l272 0c11 0 20 9 20 20z m100-64l-310 0c-11 0-20-9-20-19 0-11 9-20 20-20l310 0c11 0 20 9 20 20 0 10-9 19-20 19z m-52 86c-12 0-22-10-22-22 0-12 10-23 22-23l2 0c12 0 22 11 22 23 0 12-10 22-22 22z m126 162c-3 6-10 8-15 8-27-2-54 12-67 35-14 24-13 54 3 76 3 5 4 11 1 16-3 6-9 9-15 10-21 1-42-4-60-15-29-17-50-47-54-81-1-9 5-18 15-19 9-1 17 5 19 14 3 25 17 45 37 57 5 3 9 5 14 6-7-27-4-56 11-81 14-24 38-42 65-49-4-3-8-6-13-9-4-2-9-4-14-6-9-3-13-12-10-21 2-8 9-12 15-12 2 0 4 0 5 1 8 2 15 6 21 9 18 11 32 26 42 45 4 5 3 11 0 16z m-464-130c12 0 22 10 22 22 0 27 20 45 49 45 13 0 22 10 23 22 0 7 3 63 61 63 25 0 42-10 53-29 9-16 10-34 10-34 1-11 11-21 23-21l25 0c29 0 49-18 49-45 0-12 10-23 22-23 13 0 23 11 23 23 0 52-40 90-94 90l-6 0c-3 9-6 19-12 30-18 35-51 54-93 54-42 0-75-19-93-54-5-11-9-23-11-32-44-8-74-42-74-89 0-12 10-22 23-22z"/>
<glyph unicode="&#109;" d="M300 361c9 6 20 9 31 9 30 0 54-24 54-54 0-9-2-17-6-25-5-8-1-18 7-22 2-1 5-2 8-2 6 0 12 4 15 9 7 13 10 27 10 41 0 48-39 88-88 88-17 0-34-6-49-16-7-5-9-15-4-23 4-8 15-10 22-5z m31 70c9 0 17 7 17 17l0 32c0 9-8 17-17 17-10 0-17-8-17-17l0-32c0-10 7-17 17-17z m163-98l-32 0c-10 0-17-7-17-17 0-9 7-17 17-17l32 0c10 0 17 8 17 17 0 10-7 17-17 17z m-70 59c4 0 8 2 11 5l23 23c7 6 7 17 0 23-7 7-17 7-24 0l-22-22c-7-7-7-18 0-24 3-3 7-5 12-5z m11-156c-6 6-17 6-23 0-7-7-7-18 0-24l22-22c4-4 8-5 12-5 5 0 9 1 12 5 7 6 7 17 0 23z m-209 161c3-3 7-5 11-5 5 0 9 2 12 5 7 7 7 18 0 24l-22 22c-7 7-18 7-24 0-7-6-7-17 0-23z m-202-224c12 0 22 10 22 22 0 27 20 45 49 45 12 0 22 10 23 22 0 6 3 63 61 63 25 0 42-10 53-29 9-16 10-34 10-34 0-12 11-21 22-21l26 0c29 0 49-18 49-45 0-13 10-23 22-23 13 0 23 10 23 23 0 52-40 90-94 90l-6 0c-3 9-6 19-12 30-18 35-51 54-93 54-41 0-74-19-92-54-6-12-9-23-12-32-44-8-74-43-74-89 0-12 10-22 23-22z m290-54c0 10-9 19-20 19l-273 0c-10 0-19-9-19-19 0-11 9-20 19-20l273 0c11 0 20 9 20 20z m100-64l-310 0c-11 0-20-9-20-20 0-11 9-20 20-20l310 0c11 0 20 9 20 20 0 11-9 20-20 20z m-51 86l-1 0c-12 0-22-10-22-22 0-13 10-23 22-23l1 0c13 0 23 10 23 23 0 12-10 22-23 22z"/>
<glyph unicode="&#110;" d="M319 405c13 16 32 25 53 25 38 0 69-31 69-69 0-16-6-32-17-44-6-8-5-18 2-24 4-3 8-4 11-4 5 0 10 2 13 6 16 19 24 43 24 67 0 56-46 102-102 102-30 0-59-13-79-37-6-7-5-18 2-24 8-6 18-5 24 2z m-259-199c13 0 23 10 23 22 0 27 19 45 49 45 12 0 22 10 22 22 0 7 4 63 61 63 25 0 43-10 53-29 9-16 11-34 11-34 0-11 10-21 22-21l25 0c30 0 49-18 49-45 0-12 10-23 23-23 12 0 22 11 22 23 0 52-39 90-94 90l-6 0c-2 9-5 19-11 30-19 35-52 54-93 54-42 0-75-19-93-54-5-11-9-23-11-32-44-8-74-42-74-88 0-13 10-23 22-23z m291-54c0 11-9 20-20 20l-273 0c-11 0-20-9-20-20 0-11 9-20 20-20l273 0c11 0 20 9 20 20z m100-64l-311 0c-11 0-20-9-20-20 0-11 9-20 20-20l311 0c10 0 19 9 19 20 0 11-9 20-19 20z m-51 86l-1 0c-12 0-22-10-22-22 0-12 10-23 22-23l2 0c12 0 22 11 22 23 0 12-11 22-23 22z"/>
<glyph unicode="&#111;" d="M353 362l-6 0c-2 9-5 19-11 30-19 34-52 54-93 54-42 0-75-20-93-54-5-12-9-23-11-32-44-8-74-43-74-88 0-30 14-57 37-73 10-7 24-5 31 5 8 10 5 24-5 32-11 8-18 21-18 36 0 27 20 45 49 45 13 0 22 9 23 22 0 6 3 62 61 62 25 0 42-9 53-29 9-16 10-33 10-33 1-12 11-22 23-22l25 0c29 0 49-18 49-45 0-22-15-39-37-44-12-2-20-14-18-26 3-11 12-18 22-18 2 0 3 0 5 1 43 8 73 44 73 88-1 51-40 89-95 89z m-156-95c-10 3-21-3-24-14l-19-71c-3-10 4-21 14-24 2 0 4 0 5 0 9 0 17 5 19 14l20 71c2 11-4 21-15 24z m-51-124c-4-3-5-8-5-14 0-5 2-10 5-14 4-4 9-5 14-5 5 0 10 2 14 5 4 4 6 9 6 14 0 5-2 11-6 14-7 8-20 8-28 0z m52-43c-4-3-6-8-6-14 0-5 3-10 6-14 3-3 8-6 14-6 5 0 10 3 14 6 4 3 6 8 6 14 0 5-2 10-6 14-7 7-21 7-28 0z m75 43c-3-3-6-9-6-14 0-5 3-10 6-14 4-4 9-5 14-5 5 0 10 2 14 5 4 4 6 9 6 14 0 5-3 11-6 14-7 8-21 8-28 0z m-24 81c-10 3-21-3-24-14l-19-71c-3-11 3-21 14-24 2-1 3-1 5-1 8 0 17 6 19 15l19 71c3 10-3 21-14 24z m75 43c-11 3-21-3-24-14l-19-71c-3-10 3-21 14-24 2 0 3 0 5 0 8 0 17 5 19 14l19 71c3 11-3 21-14 24z"/>
<glyph unicode="&#112;" d="M353 346l-6 0c-2 9-5 19-11 30-19 35-52 54-93 54-42 0-75-19-93-54-5-11-9-23-11-32-44-8-74-42-74-88 0-29 14-56 37-73 10-7 24-5 31 5 8 11 5 25-5 32-11 8-18 21-18 36 0 27 20 45 49 45 13 0 22 10 23 22 0 6 3 62 61 62 25 0 42-9 53-28 9-17 10-34 10-34 1-12 11-21 23-21l25 0c29 0 49-18 49-45 0-23-15-40-37-44-12-3-20-14-18-27 3-10 12-18 22-18 2 0 3 0 5 1 43 8 73 44 73 88-1 51-40 89-95 89z m-156-95c-10 3-21-3-24-14l-19-70c-3-11 4-22 14-25 2 0 4 0 5 0 9 0 17 5 19 14l20 71c2 11-4 22-15 24z m-51-123c-4-4-5-9-5-14 0-5 2-10 5-14 4-4 9-6 14-6 5 0 10 2 14 6 4 3 6 9 6 14 0 5-2 10-6 14-7 7-20 7-28 0z m177 77l-25 0 31 43c2 3 2 6 1 9-2 3-5 5-8 5l-61 0c-4 0-7-3-8-6l-35-89c-1-3 0-6 1-8 2-2 4-3 7-3l18 0-23-62c-2-4 0-8 3-10 1-1 3-1 4-1 3 0 5 1 7 3l93 105c2 3 3 6 1 9 0 3-3 5-6 5z"/>
<glyph unicode="&#113;" d="M300 307l-6 0c-3 9-6 19-12 29-18 35-51 54-92 54-42 0-75-19-93-54-6-11-9-22-11-31-45-8-75-43-75-88 0-30 14-57 37-73 11-7 25-5 32 5 7 10 5 24-5 32-11 7-18 21-18 36 0 27 20 45 49 45 12 0 22 9 22 22 0 6 4 62 62 62 24 0 42-10 52-29 10-16 11-33 11-33 0-12 10-22 22-22l25 0c30 0 49-18 49-45 0-22-14-39-36-44-13-2-20-14-18-26 2-11 11-18 22-18 1 0 3 0 4 0 44 9 73 45 73 89 0 50-40 89-94 89z m198 17c-3 5-10 8-15 7-27-2-54 12-67 36-14 23-13 53 3 75 3 5 4 12 1 17-3 6-9 9-15 10-21 1-42-5-60-15-29-17-50-47-54-82-1-9 5-17 15-19 9-1 17 5 19 15 3 24 17 44 37 57 5 3 9 4 14 6-7-27-4-56 11-81 14-25 38-42 65-49-4-3-8-6-13-9-4-3-9-4-14-6-9-3-13-13-10-22 2-7 9-11 15-11 2 0 4 0 5 1 8 2 15 5 21 9 18 10 32 26 42 44 4 6 3 12 0 17z m-355-112c-10 3-21-3-24-14l-19-71c-3-11 4-21 14-24 2-1 4-1 5-1 9 0 17 6 19 15l20 71c2 11-4 21-15 24z m-50-124c-4-4-6-8-6-14 0-5 2-10 6-14 3-4 8-5 14-5 5 0 10 2 14 5 4 4 6 9 6 14 0 5-3 10-6 14-8 8-21 8-28 0z m176 77l-25 0 31 44c2 3 2 6 1 9-2 3-5 4-8 4l-61 0c-3 0-7-2-8-5l-34-89c-1-3-1-6 1-8 2-2 4-4 7-4l18 0-24-61c-2-4 0-8 3-11 2 0 3-1 5-1 2 0 4 1 6 3l95 105c2 3 3 7 1 9-2 3-5 5-8 5z"/>
<glyph unicode="&#114;" d="M134 188c-11 3-21-3-24-14l-19-71c-3-11 3-21 14-24 1-1 3-1 5-1 8 0 17 6 19 15l19 71c2 10-4 21-14 24z m-51-124c-4-4-6-8-6-14 0-5 2-10 6-14 4-4 9-6 14-6 5 0 10 3 14 6 4 4 5 8 5 14 0 5-2 10-5 14-8 7-21 7-28 0z m176 77l-25 0 31 44c2 2 2 6 1 9-2 2-5 4-8 4l-61 0c-3 0-7-2-8-6l-34-88c-1-3-1-6 1-8 2-3 4-4 7-4l18 0-24-62c-2-4 0-7 3-10 1 0 3-1 5-1 2 0 4 1 6 3l93 106c3 2 3 6 2 9 0 2-4 4-7 4z m160 172c0 49-40 88-88 88-18 0-35-5-49-15-8-5-10-16-5-24 5-8 16-9 24-4 9 6 20 9 30 9 30 0 54-24 54-54 0-9-2-18-6-25-4-8-1-18 8-22 2-2 5-2 7-2 7 0 12 3 16 9 5 12 9 26 9 40z m-88 115c9 0 17 7 17 16l0 33c0 9-8 16-17 16-10 0-17-7-17-16l0-33c0-9 7-16 17-16z m163-98l-32 0c-10 0-17-7-17-17 0-9 7-16 17-16l32 0c10 0 17 7 17 16 0 10-7 17-17 17z m-70 59c4 0 8 2 11 5l23 23c7 7 7 17 0 24-7 6-17 6-24 0l-22-23c-7-7-7-17 0-24 3-4 7-5 12-5z m11-157c-6 7-17 7-23 0-7-6-7-17 0-23l22-23c4-3 8-5 12-5 5 0 9 2 12 5 7 7 7 18 0 24z m-209 162c3-4 7-5 11-5 5 0 9 1 12 5 7 7 7 17 0 23l-22 23c-7 7-18 7-24 0-7-7-7-17 0-24z m64-112l-6 0c-3 9-6 19-12 30-18 35-51 54-93 54-41 0-74-19-92-54-6-12-9-23-12-32-44-8-74-43-74-88 0-29 14-56 37-73 10-7 24-5 32 5 7 10 5 25-5 32-12 8-18 21-18 36 0 27 19 45 49 45 12 0 22 9 22 22 0 6 4 62 61 62 25 0 43-9 53-28 9-17 10-34 10-34 1-12 11-22 23-22l25 0c30 0 49-18 49-45 0-22-14-39-36-43-13-3-21-15-18-27 2-11 11-18 22-18 1 0 2 0 4 1 43 8 73 44 73 88 0 51-40 89-94 89z"/>
<glyph unicode="&#115;" d="M372 460c-30 0-59-13-79-37-6-7-5-18 2-24 8-6 18-5 24 3 13 15 32 24 53 24 38 0 69-30 69-68 0-16-6-32-17-45-6-7-5-18 2-23 4-3 8-4 11-4 5 0 10 2 13 6 16 19 24 42 24 66 0 57-46 102-102 102z m-46-145l-6 0c-2 9-5 19-11 30-19 35-52 54-93 54-42 0-75-19-93-54-5-11-9-23-11-32-44-7-74-42-74-88 0-29 14-56 37-73 10-7 24-5 31 6 8 10 5 24-5 31-11 8-18 21-18 36 0 27 20 45 49 45 13 0 22 10 23 22 0 6 3 62 61 62 25 0 42-9 53-28 9-17 10-34 10-34 1-12 11-21 23-21l24 0c30 0 49-18 49-45 0-23-14-40-36-44-13-3-21-14-18-27 2-10 11-18 22-18 1 0 2 0 4 1 43 8 73 44 73 88 0 51-39 89-94 89z m-156-94c-10 2-21-4-24-15l-19-70c-3-11 4-22 14-25 2 0 4 0 5 0 9 0 17 5 19 14l20 71c2 11-4 22-15 25z m-51-124c-4-4-5-9-5-14 0-5 2-10 5-14 4-4 9-6 14-6 5 0 10 2 14 6 4 4 6 8 6 14 0 5-2 10-6 14-7 7-20 7-28 0z m177 77l-25 0 31 43c2 3 2 6 1 9-2 2-5 5-8 5l-62 0c-3 0-6-3-7-6l-35-89c-1-3 0-5 1-8 2-2 4-3 7-3l18 0-23-62c-2-4 0-8 3-10 1-1 3-1 4-1 3 0 5 1 7 3l93 105c2 3 3 7 1 9 0 3-3 5-6 5z"/>
<glyph unicode="&#116;" d="M143 228c-10 3-21-4-24-14l-19-71c-3-11 4-21 14-24 2-1 4-1 5-1 9 0 17 6 19 15l20 71c2 10-4 21-15 24z m-50-124c-4-4-6-9-6-14 0-5 2-10 6-14 3-3 8-6 14-6 5 0 10 3 14 6 4 4 6 9 6 14 0 5-3 10-6 14-8 7-21 7-28 0z m52-43c-4-4-6-9-6-14 0-5 2-10 6-14 4-4 8-6 14-6 5 0 10 2 14 6 4 4 5 9 5 14 0 5-2 10-5 14-8 7-21 7-28 0z m74 43c-4-4-5-9-5-14 0-5 2-10 5-14 4-3 9-6 14-6 6 0 11 3 15 6 3 4 5 9 5 14 0 5-2 10-5 14-8 7-21 7-29 0z m-23 81c-11 2-22-4-24-15l-20-70c-2-11 4-22 15-25 1 0 3 0 5 0 8 0 16 5 19 14l19 71c3 11-4 22-14 25z m75 43c-11 3-22-4-25-14l-19-71c-3-11 4-21 14-24 2-1 4-1 5-1 9 0 17 6 20 15l19 71c3 10-4 21-14 24z m29 94l-6 0c-3 9-6 20-12 30-18 35-51 54-92 54-42 0-75-19-93-54-6-11-9-22-11-31-45-9-75-43-75-89 0-29 14-56 37-72 11-8 25-5 32 5 7 10 5 24-5 31-11 8-18 22-18 36 0 27 20 45 49 45 12 0 22 10 22 22 0 7 4 63 62 63 24 0 42-10 52-29 10-16 11-34 11-34 0-11 10-21 22-21l25 0c30 0 49-18 49-45 0-23-14-39-36-44-13-2-20-14-18-26 2-11 11-18 22-18 1 0 3 0 4 0 44 9 73 45 73 88 0 51-40 89-94 89z m198 18c-3 5-10 8-15 7-27-2-54 12-67 36-14 23-13 53 3 75 3 5 4 12 1 17-3 5-9 9-15 9-21 2-42-4-60-14-29-18-50-47-54-82-1-9 5-17 15-19 9-1 17 5 19 15 3 24 17 44 37 57 5 2 9 4 14 6-7-27-4-57 11-81 14-25 38-42 65-49-4-4-8-6-13-9-4-3-9-5-14-6-9-3-13-13-10-22 2-7 9-12 15-12 2 0 4 0 5 2 8 2 15 5 21 9 18 10 32 25 42 44 4 6 3 12 0 17z"/>
<glyph unicode="&#117;" d="M134 204c-11 2-21-4-24-14l-19-71c-3-11 3-22 14-24 1-1 3-1 5-1 8 0 17 6 19 15l19 70c2 11-4 22-14 25z m-51-124c-4-4-6-9-6-14 0-5 2-10 6-14 4-4 9-6 14-6 5 0 10 2 14 6 4 4 5 9 5 14 0 5-2 10-5 14-8 7-21 7-28 0z m51-43c-3-4-5-9-5-14 0-6 2-11 5-15 4-3 9-5 15-5 5 0 10 2 14 5 3 4 5 9 5 15 0 5-2 10-5 14-8 7-21 7-29 0z m75 43c-4-4-5-9-5-14 0-5 2-10 5-14 4-4 9-6 14-6 5 0 10 2 14 6 4 4 6 9 6 14 0 5-2 10-6 14-7 7-20 7-28 0z m-23 80c-11 3-22-3-25-14l-19-71c-2-10 4-21 14-24 2 0 4 0 5 0 9 0 17 5 20 14l19 71c3 10-4 22-14 24z m75 44c-11 2-22-4-25-14l-19-71c-3-11 4-22 14-24 2-1 4-1 5-1 9 0 17 6 19 15l20 70c2 11-4 22-14 25z m158 125c0 49-40 88-88 88-18 0-35-5-49-15-8-5-10-16-5-24 5-8 16-9 24-4 9 6 20 9 30 9 30 0 54-25 54-54 0-9-2-18-6-25-4-9-1-19 8-23 2-1 5-1 7-1 7 0 12 3 16 9 5 12 9 26 9 40z m-88 114c9 0 17 8 17 17l0 32c0 10-8 17-17 17-10 0-17-7-17-17l0-32c0-9 7-17 17-17z m163-97l-32 0c-10 0-17-7-17-17 0-9 7-17 17-17l32 0c10 0 17 8 17 17 0 10-7 17-17 17z m-70 59c4 0 8 2 11 5l23 23c7 6 7 17 0 23-7 7-17 7-24 0l-22-22c-7-7-7-18 0-24 3-3 7-5 12-5z m11-157c-6 7-17 7-23 0-7-7-7-17 0-24l22-22c4-3 8-5 12-5 5 0 9 2 12 5 7 7 7 17 0 24z m-209 162c3-4 7-5 11-5 5 0 9 1 12 5 7 6 7 17 0 23l-22 23c-7 6-18 6-24 0-7-7-7-18 0-24z m64-112l-6 0c-3 9-6 19-12 29-18 35-51 54-93 54-41 0-74-19-92-54-6-11-9-22-12-31-44-8-74-42-74-88 0-30 14-57 37-73 10-7 24-5 32 5 7 10 5 24-5 32-12 7-18 21-18 36 0 27 19 45 49 45 12 0 22 9 22 22 0 6 4 62 61 62 25 0 43-10 53-29 9-16 10-33 10-33 1-12 11-22 23-22l25 0c30 0 49-18 49-45 0-22-14-39-36-44-13-2-21-14-18-26 2-11 11-18 22-18 1 0 2 0 4 0 43 9 73 45 73 89 0 51-40 89-94 89z"/>
<glyph unicode="&#118;" d="M372 476c-30 0-59-14-79-37-6-7-5-18 2-24 8-6 18-5 24 2 13 16 32 25 53 25 38 0 69-31 69-68 0-17-6-32-17-45-6-7-5-18 2-23 4-3 8-4 11-4 5 0 10 2 13 6 16 18 24 42 24 66 0 56-46 102-102 102z m-46-145l-6 0c-2 9-5 19-11 30-19 35-52 54-93 54-42 0-75-19-93-54-5-12-9-23-11-32-44-8-74-43-74-88 0-29 14-56 37-73 10-7 24-5 31 5 8 10 5 24-5 32-11 8-18 21-18 36 0 27 20 45 49 45 13 0 22 9 23 22 0 6 3 62 61 62 25 0 42-9 53-28 9-17 10-34 10-34 1-12 11-22 23-22l24 0c30 0 49-18 49-45 0-22-14-39-36-44-13-2-21-14-18-26 2-11 11-18 22-18 1 0 2 0 4 1 43 8 73 44 73 88 0 51-39 89-94 89z m-156-95c-10 3-21-3-24-14l-19-70c-3-11 4-21 14-24 2-1 4-1 5-1 9 0 17 6 19 15l20 71c2 10-4 20-15 23z m-51-123c-4-4-5-9-5-15 0-5 2-10 5-14 4-3 9-5 14-5 5 0 10 2 14 5 4 4 6 9 6 14 0 6-2 11-6 15-7 7-20 7-28 0z m52-44c-3-3-6-9-6-14 0-5 3-10 6-14 4-4 9-6 14-6 5 0 10 3 14 6 4 4 6 9 6 14 0 5-2 10-6 14-7 8-21 8-28 0z m75 44c-4-4-6-9-6-15 0-5 2-10 6-14 3-3 9-5 14-5 5 0 10 2 14 5 3 4 6 9 6 14 0 6-3 11-6 15-7 7-21 7-28 0z m-24 80c-10 3-21-3-24-14l-19-71c-3-11 3-21 14-24 2-1 3-1 5-1 8 0 17 6 19 15l19 71c3 10-3 21-14 24z m75 43c-11 3-21-3-24-14l-19-70c-3-11 3-21 14-24 2-1 3-1 5-1 8 0 17 6 19 15l19 71c3 10-3 20-14 23z"/>
<glyph unicode="&#119;" d="M353 346l-6 0c-2 9-5 19-11 30-19 35-52 54-93 54-42 0-75-19-93-54-5-11-9-23-11-32-44-8-74-42-74-88 0-42 27-77 69-87 12-3 24 4 27 17 3 11-5 24-17 27-21 5-34 22-34 43 0 27 19 45 49 45 12 0 22 10 22 22 0 6 4 62 61 62 25 0 43-9 53-28 9-17 11-34 11-34 0-12 10-21 22-21l25 0c30 0 49-18 49-45 0-22-15-45-49-45-12 0-22-11-22-23 0-12 10-22 22-22 54 0 94 38 94 90 0 51-39 89-94 89z m-59-141l-25 0 31 43c2 3 2 6 0 9-1 3-4 5-7 5l-62 0c-3 0-7-3-8-6l-34-89c-1-3-1-6 1-8 2-2 4-3 7-3l18 0-24-62c-1-4 0-8 4-10 1-1 2-1 4-1 2 0 5 1 6 3l94 105c2 3 3 6 1 9-2 3-3 5-6 5z"/>
<glyph unicode="&#120;" d="M498 324c-3 5-10 8-15 7-27-2-54 12-67 36-14 23-13 53 3 75 3 5 4 12 1 17-3 6-9 9-15 10-21 1-42-5-60-15-29-17-50-47-54-82-1-9 5-17 15-19 9-1 18 5 19 15 3 24 17 44 37 57 5 3 9 4 14 6-7-27-4-56 11-81 14-25 38-42 65-49-4-3-8-6-13-9-4-3-9-4-14-6-9-3-13-13-10-22 2-7 9-11 15-11 2 0 4 0 5 1 8 2 15 5 21 9 18 10 32 26 42 44 4 6 3 12 0 17z m-258-159l-25 0 31 44c2 3 2 6 0 9-1 3-4 4-7 4l-61 0c-4 0-7-2-8-5l-34-89c-2-3-1-6 1-8 1-2 4-4 6-4l18 0-23-61c-2-4 0-8 3-11 1 0 3-1 5-1 2 0 4 1 6 3l93 106c3 2 3 6 1 9 0 2-3 4-6 4z m60 142l-6 0c-3 9-6 19-12 29-18 35-51 54-92 54-42 0-75-19-93-54-6-11-9-22-11-31-45-8-75-43-75-88 0-43 28-78 69-88 12-2 24 5 27 17 3 12-5 24-17 27-21 5-34 22-34 44 0 27 19 45 49 45 12 0 22 9 22 22 0 6 4 62 61 62 25 0 43-10 53-29 9-16 11-33 11-33 0-12 10-22 22-22l25 0c30 0 49-18 49-45 0-22-15-45-49-45-12 0-22-10-22-22 0-13 10-23 22-23 54 0 94 39 94 90 1 51-39 90-93 90z"/>
<glyph unicode="&#121;" d="M419 313c0 49-40 88-88 88-18 0-35-5-49-15-8-5-10-16-5-24 5-8 16-9 24-4 9 6 20 9 30 9 30 0 54-24 54-54 0-9-2-18-6-25-4-8-1-18 8-22 2-2 5-2 7-2 7 0 12 3 16 9 5 12 9 26 9 40z m-88 115c9 0 17 7 17 16l0 33c0 9-8 16-17 16-10 0-17-7-17-16l0-33c0-9 7-16 17-16z m163-98l-32 0c-10 0-17-7-17-17 0-9 7-16 17-16l32 0c10 0 17 7 17 16 0 10-7 17-17 17z m-70 59c4 0 8 2 11 5l23 23c7 7 7 17 0 24-7 6-17 6-24 0l-22-23c-7-7-7-17 0-24 3-3 7-5 12-5z m11-157c-6 7-17 7-23 0-7-6-7-17 0-23l22-23c4-3 8-5 12-5 5 0 9 2 12 5 7 7 7 18 0 24z m-209 162c3-4 7-5 11-5 5 0 9 1 12 5 7 7 7 17 0 23l-22 23c-7 7-18 7-24 0-7-7-7-17 0-24z m4-253l-25 0 31 43c1 3 2 6 0 9-1 3-4 4-7 4l-61 0c-4 0-7-2-8-5l-35-89c-1-3 0-6 2-8 1-2 4-3 6-3l18 0-23-62c-2-4 0-8 3-10 1-1 3-1 5-1 2 0 4 1 6 2l94 106c3 2 3 6 1 9-1 3-4 5-7 5z m60 141l-6 0c-3 9-6 19-12 30-18 35-51 54-93 54-41 0-74-19-92-54-6-12-9-23-12-32-44-8-74-42-74-88 0-42 28-77 69-87 12-3 25 4 27 17 3 11-4 24-17 27-20 5-34 21-34 43 0 27 20 45 49 45 12 0 22 9 23 22 0 6 3 62 61 62 25 0 42-9 53-28 9-17 10-34 10-34 0-12 11-22 22-22l26 0c29 0 49-18 49-45 0-22-15-45-49-45-13 0-23-10-23-22 0-12 10-23 23-23 53 0 94 39 94 90 0 52-40 90-94 90z"/>
<glyph unicode="&#122;" d="M326 315l-6 0c-2 9-5 19-11 30-19 35-52 54-93 54-42 0-75-19-93-54-5-11-9-23-11-32-44-7-74-42-74-88 0-42 27-77 69-87 12-3 24 4 27 17 3 12-5 24-17 27-21 5-34 22-34 43 0 27 19 45 49 45 12 0 22 10 22 22 0 6 4 62 61 62 25 0 43-9 53-28 9-17 11-34 11-34 0-12 10-21 22-21l25 0c30 0 49-18 49-45 0-22-15-45-49-45-12 0-22-11-22-23 0-12 10-22 22-22 54 0 94 38 94 90 0 51-39 89-94 89z m46 145c-30 0-59-13-79-37-6-7-5-18 2-24 8-6 18-5 24 3 13 15 32 24 53 24 38 0 69-30 69-68 0-16-6-32-17-45-6-7-5-18 2-23 4-3 8-4 11-4 5 0 10 2 13 6 16 19 24 42 24 66 0 57-46 102-102 102z m-106-286l-25 0 31 43c2 3 3 6 1 9-2 3-5 5-7 5l-62 0c-3 0-7-3-8-6l-34-89c-1-3-1-5 1-8 2-2 4-3 7-3l18 0-24-62c-1-4 0-8 4-10 1-1 2-1 4-1 2 0 5 1 6 3l94 105c2 3 3 7 1 9 0 3-3 5-7 5z"/>
<glyph unicode="&#65;" d="M290 240l-6 0c-3 9-6 19-12 30-18 35-51 54-93 54-41 0-74-19-92-54-6-11-9-22-12-31-43-8-74-43-74-89 0-45 33-81 78-89 2 0 5-1 7-1l204 0c53 0 94 39 94 90 0 53-40 90-94 90z m0-135l-195 0c-34 0-49 23-49 45 0 27 20 45 49 45 12 0 22 10 23 22 0 6 3 63 61 63 25 0 42-10 53-29 9-16 10-34 10-34 0-12 11-21 22-21l26 0c29 0 49-18 49-45 0-22-15-46-49-46z m218 161c-3 5-10 8-15 7-37-2-73 16-92 49-18 32-17 72 4 103 3 5 4 12 1 17-3 6-8 9-14 10-26 1-52-5-75-19-32-18-55-48-64-82-3-9 2-19 11-21 9-3 18 3 21 12 8 26 25 48 49 62 9 5 18 9 28 11-13-36-10-76 9-110 20-34 54-57 91-64-7-7-15-13-24-19-8-4-17-8-25-10-9-3-15-12-12-21 2-8 9-13 16-13 2 0 3 0 5 1 12 3 23 8 34 14 22 13 41 32 53 56 2 5 2 12-1 17z"/>
<glyph unicode="&#66;" d="M353 362l-6 0c-2 9-5 19-11 30-19 34-52 54-93 54-42 0-75-20-93-54-5-12-9-23-11-32-44-8-74-43-74-88 0-30 14-57 37-73 10-7 24-5 31 5 8 10 5 24-5 32-11 8-18 21-18 36 0 27 20 45 49 45 13 0 22 9 23 22 0 6 3 62 61 62 25 0 42-9 53-29 9-16 10-33 10-33 1-12 11-22 23-22l25 0c29 0 49-18 49-45 0-22-15-39-37-44-12-2-20-14-18-26 3-11 12-18 22-18 2 0 3 0 5 1 43 8 73 44 73 88-1 51-40 89-95 89z m-158-95c-10 3-21-3-24-14l-31-116c-3-11 3-22 14-24 1-1 3-1 5-1 8 0 17 6 19 15l31 116c3 11-3 21-14 24z m55-45c-11 2-22-4-24-14l-32-117c-3-11 3-21 14-24 2-1 4-1 5-1 9 0 17 6 19 15l32 116c2 11-4 21-14 25z m79 45c-11 3-22-3-25-14l-31-116c-3-11 3-22 14-24 2-1 3-1 5-1 8 0 17 6 19 15l32 116c2 11-4 21-14 24z"/>
<glyph unicode="&#67;" d="M353 349l-6 0c-2 9-5 19-11 30-19 35-52 54-93 54-42 0-75-19-93-54-5-12-9-23-11-32-44-8-74-43-74-88 0-33 16-62 44-78 11-6 25-2 31 9 6 10 2 24-8 31-14 7-22 21-22 38 0 27 20 45 49 45 13 0 22 9 23 22-1 6 3 62 60 62 25 0 43-9 53-28 9-17 11-34 11-34 0-12 10-22 22-22l25 0c30 0 49-18 49-45 0-22-15-45-49-45l-12 0c-12 0-23-10-23-22 0-13 11-23 23-23l12 0c54 0 94 39 94 90 0 52-39 90-94 90z m-103-181c-5 0-9-3-11-6-6-7-23-31-23-48 0-22 17-35 34-35 17 0 34 13 34 35 0 18-17 41-23 48-3 4-7 6-11 6z m-45 64c-5 6-14 6-18 0-4-5-17-23-17-36 0-17 13-27 26-27 13 0 26 10 26 27 0 13-13 31-17 36z m79 34c-3 0-5-2-7-4-3-4-14-20-14-31 0-14 10-23 21-23 11 0 22 9 22 23 0 7-12 35-22 35z"/>
<glyph unicode="&#68;" d="M498 327c-3 6-10 8-15 8-27-2-54 12-67 35-14 24-13 54 3 76 3 5 4 11 1 16-3 6-9 9-15 10-21 1-42-4-60-15-29-17-50-47-54-81-1-9 5-18 15-19 9-1 18 5 19 14 3 25 17 45 37 57 5 3 9 5 14 6-7-27-4-56 11-81 14-24 38-42 65-49-4-3-8-6-13-9-4-2-9-4-14-6-9-3-13-12-10-21 2-8 9-12 15-12 2 0 4 0 5 1 8 2 15 6 21 9 18 11 32 26 42 45 4 5 3 11 0 16z m-302-198c-4 0-8-2-11-6-5-7-22-31-22-48 0-22 16-35 33-35 17 0 34 13 34 35 0 18-17 41-22 48-3 4-7 6-12 6z m-45 65c-4 5-13 5-18 0-4-6-17-24-17-37 0-17 13-27 26-27 13 0 26 10 26 27 0 13-13 31-17 37z m80 32c-3 0-5-1-7-3-3-5-15-20-15-32 0-14 11-22 22-22 10 0 21 8 21 22 0 8-12 35-21 35z m69 83l-6 0c-3 9-6 20-12 30-18 36-51 55-93 55-42 0-75-19-93-54-5-11-9-23-11-32-44-8-74-43-74-89 0-32 17-61 45-77 10-6 24-2 31 8 6 11 2 25-9 31-14 8-22 23-22 38 0 27 20 45 49 45 13 0 22 10 23 22 0 7 3 63 61 63 25 0 42-10 53-29 9-16 10-34 10-34 1-11 11-21 23-21l25 0c29 0 49-18 49-45 0-22-15-45-49-45l-13 0c-12 0-23-10-23-23 0-12 11-22 23-22l12 0c54-1 95 38 95 89 0 53-40 90-94 90z"/>
<glyph unicode="&#69;" d="M419 316c0 49-40 88-88 88-18 0-35-5-49-15-8-5-10-16-5-24 5-8 16-9 24-4 9 6 20 9 30 9 30 0 54-25 54-54 0-9-2-18-6-25-4-9-1-19 8-23 2-1 5-1 7-1 7 0 12 3 16 9 5 12 9 26 9 40z m-88 115c9 0 17 7 17 17l0 32c0 9-8 17-17 17-10 0-17-8-17-17l0-32c0-10 7-17 17-17z m163-98l-32 0c-10 0-17-7-17-17 0-9 7-17 17-17l32 0c10 0 17 8 17 17 0 10-7 17-17 17z m-70 59c4 0 8 2 11 5l23 23c7 6 7 17 0 23-7 7-17 7-24 0l-22-22c-7-7-7-18 0-24 3-3 7-5 12-5z m11-157c-6 7-17 7-23 0-7-7-7-17 0-23l22-23c4-3 8-5 12-5 5 0 9 2 12 5 7 7 7 17 0 24z m-209 162c3-3 7-5 11-5 5 0 9 2 12 5 7 7 7 18 0 24l-22 22c-7 7-18 7-24 0-7-6-7-17 0-23z m-40-293c-4 0-8-2-11-6-5-6-23-30-23-47 0-22 17-36 34-36 17 0 34 14 34 36 0 17-17 41-23 47-2 4-6 6-11 6z m-45 65c-4 5-13 5-18 0-4-5-17-24-17-37 0-17 13-27 26-27 13 0 26 10 26 27 0 14-13 32-17 37z m80 33c-3 0-6-1-7-3-4-5-15-21-15-32 0-14 11-22 22-22 10 0 21 8 21 22 0 7-12 35-21 35z m69 83l-6 0c-3 9-6 19-12 30-18 35-51 54-93 54-41 0-74-19-92-54-6-11-9-22-12-31-44-8-74-43-74-89 0-32 16-61 45-77 10-7 24-3 31 8 6 11 2 25-9 31-13 8-21 22-21 38 0 27 19 45 49 45 12 0 22 10 22 22 0 6 4 63 61 63 25 0 43-10 53-29 9-16 10-34 10-34 1-12 11-21 23-21l25 0c30 0 49-18 49-45 0-22-15-45-49-45l-12 0c-12 0-23-10-23-23 0-12 11-22 23-22l12 0c54 0 94 39 94 90 0 52-40 89-94 89z"/>
<glyph unicode="&#70;" d="M326 318l-6 0c-2 9-5 20-11 30-19 35-52 54-93 54-42 0-75-19-93-54-5-11-9-22-11-31-44-8-74-43-74-89 0-32 16-61 44-77 11-6 25-2 31 8 6 11 2 25-8 31-14 8-22 22-22 38 0 27 20 45 49 45 13 0 22 10 23 22 0 7 3 63 61 63 25 0 42-10 53-29 9-16 10-34 10-34 1-11 11-21 23-21l24 0c30 0 49-18 49-45 0-22-15-45-49-45l-12 0c-12 0-23-10-23-23 0-12 11-22 23-22l12 0c54 0 94 39 94 90 0 51-39 89-94 89z m46 146c-30 0-59-14-79-38-6-7-5-18 2-23 8-6 18-5 24 2 13 16 32 25 53 25 38 0 69-31 69-69 0-16-6-32-17-44-6-8-5-18 2-24 4-3 8-4 11-4 5 0 10 2 13 6 16 19 24 43 24 67 0 55-46 102-102 102z m-149-327c-5 0-9-2-11-5-6-7-23-31-23-48 0-22 17-36 34-36 16 0 34 14 34 36 0 17-17 41-23 48-3 3-7 5-11 5z m-45 65c-5 6-14 6-18 0-4-5-17-24-17-37 0-16 13-27 26-27 13 0 26 11 26 27 0 13-13 32-17 37z m79 33c-3 0-5-1-7-3-3-5-14-20-14-32 0-14 10-22 21-22 11 0 22 8 22 22 0 8-12 35-22 35z"/>
<glyph unicode="&#71;" d="M353 346l-6 0c-2 9-5 19-11 30-19 35-52 54-93 54-42 0-75-19-93-54-5-11-9-23-11-32-44-8-74-42-74-88 0-29 14-56 37-73 10-7 24-5 31 5 8 11 5 25-5 32-11 8-18 21-18 36 0 27 20 45 49 45 13 0 22 10 23 22 0 6 3 62 61 62 25 0 42-9 53-28 9-17 10-34 10-34 1-12 11-21 23-21l25 0c29 0 49-18 49-45 0-23-15-40-37-44-12-3-20-14-18-27 3-10 12-18 22-18 2 0 3 0 5 1 43 8 73 44 73 88-1 51-40 89-95 89z m-158-95c-10 3-21-3-24-14l-31-116c-3-11 3-21 14-24 1-1 3-1 5-1 8 0 17 6 19 15l31 116c3 11-3 22-14 24z m126-46l-24 0 30 43c2 3 3 6 1 9-2 3-4 5-7 5l-62 0c-4 0-7-3-8-6l-34-89c-2-3-1-6 1-8 1-2 4-3 6-3l18 0-23-62c-2-4 0-8 3-10 1-1 3-1 5-1 2 0 4 1 6 3l93 105c3 3 3 6 1 9 0 3-2 5-6 5z"/>
<glyph unicode="&#72;" d="M300 307l-6 0c-3 9-6 19-12 29-18 35-51 54-92 54-42 0-75-19-93-54-6-11-9-22-11-31-45-8-75-43-75-88 0-30 14-57 37-73 11-7 25-5 32 5 7 10 5 24-5 32-11 7-18 21-18 36 0 27 20 45 49 45 12 0 22 9 22 22 0 6 4 62 62 62 24 0 42-10 52-29 10-16 11-33 11-33 0-12 10-22 22-22l25 0c30 0 49-18 49-45 0-22-14-39-36-44-13-2-20-14-18-26 2-11 11-18 22-18 1 0 3 0 4 0 44 9 73 45 73 89 0 50-40 89-94 89z m198 17c-3 5-10 8-15 7-27-2-54 12-67 36-14 23-13 53 3 75 3 5 4 12 1 17-3 6-9 9-15 10-21 1-42-5-60-15-29-17-50-47-54-82-1-9 5-17 15-19 9-1 17 5 19 15 3 24 17 44 37 57 5 3 9 4 14 6-7-27-4-56 11-81 14-25 38-42 65-49-4-3-8-6-13-9-4-3-9-4-14-6-9-3-13-13-10-22 2-7 9-11 15-11 2 0 4 0 5 1 8 2 15 5 21 9 18 10 32 26 42 44 4 6 3 12 0 17z m-356-112c-11 3-22-3-24-14l-32-116c-3-11 3-22 14-25 2 0 4 0 5 0 9 0 17 5 19 14l32 117c3 11-4 21-14 24z m126-47l-25 0 31 44c2 3 2 6 1 9-2 3-5 4-8 4l-62 0c-3 0-6-2-8-5l-34-89c-1-3 0-6 1-8 2-2 4-4 7-4l18 0-24-61c-1-4 0-8 4-11 1 0 3-1 4-1 3 0 5 1 6 3l94 106c2 2 3 6 1 9 0 2-3 4-6 4z"/>
<glyph unicode="&#73;" d="M132 188c-11 3-22-3-25-14l-31-117c-3-10 3-21 14-24 2 0 3 0 5 0 9 0 17 5 19 14l32 117c3 10-4 21-14 24z m126-47l-25 0 31 44c2 2 2 6 0 9-1 2-4 4-7 4l-62 0c-3 0-7-2-8-6l-34-88c-1-3-1-6 1-8 2-3 4-4 7-4l18 0-24-62c-1-4 0-7 4-10 1 0 2-1 4-1 2 0 5 1 6 3l94 106c2 2 3 6 1 9 0 2-3 4-6 4z m161 172c0 49-40 88-88 88-18 0-35-5-49-15-8-5-10-16-5-24 5-8 16-9 24-4 9 6 20 9 30 9 30 0 54-24 54-54 0-9-2-18-6-25-4-8-1-18 8-22 2-2 5-2 7-2 7 0 12 3 16 9 5 12 9 26 9 40z m-88 115c9 0 17 7 17 16l0 33c0 9-8 16-17 16-10 0-17-7-17-16l0-33c0-9 7-16 17-16z m163-98l-32 0c-10 0-17-7-17-17 0-9 7-16 17-16l32 0c10 0 17 7 17 16 0 10-7 17-17 17z m-70 59c4 0 8 2 11 5l23 23c7 7 7 17 0 24-7 6-17 6-24 0l-22-23c-7-7-7-17 0-24 3-4 7-5 12-5z m11-157c-6 7-17 7-23 0-7-6-7-17 0-23l22-23c4-3 8-5 12-5 5 0 9 2 12 5 7 7 7 18 0 24z m-209 162c3-4 7-5 11-5 5 0 9 1 12 5 7 7 7 17 0 23l-22 23c-7 7-18 7-24 0-7-7-7-17 0-24z m64-112l-6 0c-3 9-6 19-12 30-18 35-51 54-93 54-41 0-74-19-92-54-6-12-9-23-12-32-44-8-74-43-74-88 0-29 14-56 37-73 10-7 24-5 32 5 7 10 5 25-5 32-12 8-18 21-18 36 0 27 19 45 49 45 12 0 22 9 22 22 0 6 4 62 61 62 25 0 43-9 53-28 9-17 10-34 10-34 1-12 11-22 23-22l25 0c30 0 49-18 49-45 0-22-14-39-36-43-13-3-21-15-18-27 2-11 11-18 22-18 1 0 2 0 4 1 43 8 73 44 73 88 0 51-40 89-94 89z"/>
<glyph unicode="&#74;" d="M326 315l-6 0c-2 9-5 19-11 30-19 35-52 54-93 54-42 0-75-19-93-54-5-11-9-23-11-32-44-7-74-42-74-88 0-29 14-56 37-73 10-7 24-5 31 6 8 10 5 24-5 31-11 8-18 21-18 36 0 27 20 45 49 45 13 0 22 10 23 22 0 6 3 62 61 62 25 0 42-9 53-28 9-17 10-34 10-34 1-12 11-21 23-21l24 0c30 0 49-18 49-45 0-23-14-40-36-44-13-3-21-14-18-27 2-10 11-18 22-18 1 0 2 0 4 1 43 8 73 44 73 88 0 51-39 89-94 89z m46 145c-30 0-59-13-79-37-6-7-5-18 2-24 8-6 18-5 24 3 13 15 32 24 53 24 38 0 69-30 69-68 0-16-6-32-17-45-6-7-5-18 2-23 4-3 8-4 11-4 5 0 10 2 13 6 16 19 24 42 24 66 0 57-46 102-102 102z m-204-239c-10 2-21-4-24-15l-31-115c-3-11 3-22 14-25 1 0 3 0 5 0 8 0 17 5 19 14l31 117c3 10-3 21-14 24z m126-47l-24 0 30 43c2 3 3 6 1 9-2 3-4 5-7 5l-62 0c-4 0-7-3-8-6l-34-89c-2-3-1-5 1-8 1-2 4-3 6-3l18 0-23-62c-2-4 0-8 3-10 1-1 3-1 5-1 2 0 4 1 6 3l93 105c3 3 3 7 1 9 0 3-2 5-6 5z"/>
<glyph unicode="&#75;" d="M142 228c-11 3-22-4-24-14l-32-117c-3-10 3-21 14-24 2 0 4 0 5 0 9 0 17 5 19 14l32 117c3 10-4 21-14 24z m54-46c-11 3-22-3-24-14l-32-116c-3-11 3-22 14-24 2-1 4-1 5-1 9 0 17 6 19 15l32 116c3 10-4 21-14 24z m79 46c-11 3-21-4-24-14l-32-116c-2-11 4-21 14-24 2-1 4-1 6-1 8 0 16 6 19 15l31 116c2 10-4 21-14 24z m25 94l-6 0c-3 9-6 20-12 30-18 35-51 54-92 54-42 0-75-19-93-54-6-11-9-22-11-31-45-9-75-43-75-89 0-29 14-56 37-72 11-8 25-5 32 5 7 10 5 24-5 31-11 8-18 22-18 36 0 27 20 45 49 45 12 0 22 10 22 22 0 7 4 63 62 63 24 0 42-10 52-29 10-16 11-34 11-34 0-11 10-21 22-21l25 0c30 0 49-18 49-45 0-23-14-39-36-44-13-2-20-14-18-26 2-11 11-18 22-18 1 0 3 0 4 0 44 9 73 45 73 88 0 51-40 89-94 89z m198 18c-3 5-10 8-15 7-27-2-54 12-67 36-14 23-13 53 3 75 3 5 4 12 1 17-3 5-9 9-15 9-21 2-42-4-60-14-29-18-50-47-54-82-1-9 5-17 15-19 9-1 17 5 19 15 3 24 17 44 37 57 5 2 9 4 14 6-7-27-4-57 11-81 14-25 38-42 65-49-4-4-8-6-13-9-4-3-9-5-14-6-9-3-13-13-10-22 2-7 9-12 15-12 2 0 4 0 5 2 8 2 15 5 21 9 18 10 32 25 42 44 4 6 3 12 0 17z"/>
<glyph unicode="&#76;" d="M419 329c0 49-40 88-88 88-18 0-35-5-49-15-8-5-10-16-5-24 5-8 16-9 24-4 9 6 20 9 30 9 30 0 54-25 54-54 0-9-2-18-6-25-4-9-1-19 8-23 2-1 5-1 7-1 7 0 12 3 16 9 5 12 9 26 9 40z m-88 114c9 0 17 8 17 17l0 32c0 10-8 17-17 17-10 0-17-7-17-17l0-32c0-9 7-17 17-17z m163-97l-32 0c-10 0-17-7-17-17 0-9 7-17 17-17l32 0c10 0 17 8 17 17 0 9-7 17-17 17z m-70 59c4 0 8 2 11 5l23 23c7 6 7 17 0 23-7 7-17 7-24 0l-22-22c-7-7-7-18 0-24 3-3 7-5 12-5z m11-157c-6 7-17 7-23 0-7-7-7-17 0-24l22-22c4-3 8-5 12-5 5 0 9 2 12 5 7 7 7 17 0 24z m-209 162c3-4 7-5 11-5 5 0 9 1 12 5 7 6 7 17 0 23l-22 23c-7 6-18 6-24 0-7-7-7-18 0-24z m-94-206c-11 2-22-4-25-14l-31-117c-3-11 3-21 14-24 2-1 3-1 5-1 9 0 17 6 19 15l32 116c3 11-4 22-14 25z m54-46c-11 2-22-4-25-15l-31-116c-3-11 3-21 14-24 2-1 3-1 5-1 9 0 17 6 19 15l32 116c3 11-4 22-14 25z m79 46c-11 2-21-4-24-14l-32-117c-3-11 4-21 14-24 2-1 4-1 5-1 9 0 17 6 20 15l31 116c2 11-4 22-14 25z m25 94l-6 0c-3 9-6 19-12 29-18 35-51 54-93 54-41 0-74-19-92-54-6-11-9-22-12-31-44-8-74-42-74-88 0-29 14-56 37-72 10-8 24-5 32 5 7 10 5 24-5 31-12 8-18 22-18 36 0 27 19 45 49 45 12 0 22 10 22 22 0 6 4 63 61 63 25 0 43-10 53-29 9-16 10-34 10-34 1-12 11-21 23-21l25 0c30 0 49-18 49-45 0-23-14-40-36-44-13-2-21-14-18-27 2-10 11-18 22-18 1 0 2 0 4 1 43 8 73 44 73 88 0 51-40 89-94 89z"/>
<glyph unicode="&#77;" d="M328 329l-6 0c-2 9-6 19-11 29-19 35-52 54-93 54-42 0-75-19-93-54-6-11-9-22-11-31-44-8-75-43-75-88 0-30 14-57 38-73 10-7 24-5 31 5 7 10 5 24-5 32-11 7-18 21-18 36 0 27 20 45 49 45 12 0 22 9 22 22 0 6 4 62 62 62 24 0 42-10 53-29 9-16 10-33 10-33 0-12 10-22 22-22l26 0c29 0 49-18 49-45 0-22-15-39-37-44-12-2-20-14-18-26 2-11 11-18 22-18 2 0 3 0 4 0 44 9 74 45 74 89-1 51-40 89-95 89z m46 145c-31 0-59-14-79-37-6-8-5-18 2-24 7-6 18-5 24 2 13 16 32 25 53 25 37 0 68-31 68-69 0-16-5-32-16-44-6-7-5-18 2-24 4-3 7-4 11-4 5 0 9 3 13 7 16 18 24 42 24 66 0 56-46 102-102 102z m-204-240c-11 3-21-3-24-14l-32-116c-3-11 4-22 14-25 2 0 4 0 5 0 9 0 17 5 19 14l32 117c3 11-3 21-14 24z m54-46c-11 3-21-3-24-14l-32-116c-3-11 4-21 14-24 2 0 4 0 5 0 9 0 17 5 19 14l32 117c3 10-3 21-14 23z m79 46c-10 3-21-3-24-14l-31-116c-3-11 3-21 14-24 1-1 3-1 5-1 8 0 17 6 19 15l31 116c3 11-3 21-14 24z"/>
<glyph unicode="&#78;" d="M353 352l-6 0c-2 9-5 19-11 30-19 35-52 54-93 54-42 0-75-19-93-54-5-11-9-22-11-31-44-8-74-43-74-89 0-25 9-47 26-64 9-8 23-8 32 1 9 9 9 23 0 32-9 8-13 19-13 32 0 27 19 45 49 45 12 0 22 9 22 22 0 6 4 62 61 62 25 0 43-9 53-29 9-16 11-33 11-33 0-12 10-22 22-22l25 0c30 0 49-18 49-45 0-19-11-35-30-42-11-4-18-17-14-29 4-9 12-15 22-15 2 0 5 1 7 1 37 13 60 46 60 85 0 52-39 89-94 89z m-108-122c10 0 17 7 17 17l0 16c0 9-7 17-17 17-9 0-17-8-17-17l0-16c0-10 8-17 17-17z m0-30c-6 0-12-2-15-6-4-4-7-11-7-16 0-6 2-12 7-16 3-4 10-7 15-7 7 0 12 3 16 7 5 4 7 10 7 16 0 6-2 12-7 16-4 4-10 6-16 6z m0-75c-9 0-17-7-17-16l0-16c0-10 8-17 17-17 10 0 17 7 17 17l0 16c0 9-7 16-17 16z m66 110l-14-8c-8-4-11-15-7-23 4-5 9-8 15-8 3 0 6 0 8 2l14 8c8 4 11 15 7 23-5 8-16 11-23 6z m-134-77l-14-8c-8-5-11-16-6-23 3-6 9-9 15-9 2 0 5 1 8 2l14 8c8 5 11 15 6 23-5 9-15 12-23 7z m150-8l-14 8c-7 4-18 1-23-7-4-8-1-18 7-23l14-8c2-1 5-2 8-2 6 0 11 3 15 9 4 8 1 18-7 23z m-164 56l14-8c3-2 6-2 9-2 5 0 11 3 14 8 5 8 2 19-6 23l-14 8c-8 5-19 2-23-6-5-8-2-19 6-23z"/>
<glyph unicode="&#79;" d="M192 191c9 0 17 7 17 17l0 15c0 10-8 17-17 17-10 0-17-7-17-17l0-15c0-10 7-17 17-17z m0-30c-6 0-12-2-16-7-4-4-7-10-7-16 0-6 3-11 7-15 4-5 10-7 16-7 5 0 12 2 16 7 4 4 6 10 6 15 0 6-2 12-6 16-5 5-11 7-16 7z m0-75c-10 0-17-7-17-17l0-16c0-9 7-16 17-16 9 0 17 7 17 16l0 16c0 10-8 17-17 17z m65 110l-14-8c-8-5-11-15-6-23 3-6 9-9 15-9 2 0 5 1 8 3l14 8c8 4 11 15 6 23-5 7-15 10-23 6z m-134-77l-14-8c-8-5-11-15-6-23 3-6 9-9 15-9 2 0 5 1 8 3l14 7c8 5 11 16 6 24-4 7-14 10-23 6z m151-9l-14 8c-8 5-19 2-23-6-5-8-2-19 6-23l14-8c3-2 6-2 9-2 5 0 11 3 14 8 5 9 2 19-6 23z m-164 57l14-8c3-2 5-3 8-3 6 0 11 3 15 9 4 8 2 18-6 23l-14 8c-8 4-19 1-23-6-6-9-3-19 6-23z m388 164c-3 5-10 8-15 7-27-2-54 12-67 36-14 23-13 53 3 75 3 5 4 12 1 17-3 5-9 9-15 9-21 2-42-4-60-14-29-18-50-47-54-82-1-9 5-17 15-19 9-1 17 5 19 15 3 24 17 44 37 57 5 2 9 4 14 6-7-27-4-57 11-81 14-25 38-42 65-49-4-4-8-6-13-9-4-3-9-5-14-6-9-3-13-13-10-22 2-7 9-12 15-12 2 0 4 0 5 1 8 3 15 6 21 10 18 10 32 25 42 44 4 5 3 12 0 17z m-198-18l-6 0c-3 9-6 19-12 30-18 35-51 54-92 54-42 0-75-19-93-54-6-12-9-23-11-32-45-8-75-43-75-88 0-25 10-47 27-64 9-9 23-9 32 0 8 9 8 23-1 32-8 9-13 20-13 32 0 27 20 45 49 45 13 0 22 10 23 22 0 7 3 63 61 63 25 0 42-10 53-29 9-16 10-34 10-34 1-11 11-21 23-21l25 0c29 0 49-18 49-45 0-20-11-36-30-42-12-4-18-17-14-29 3-10 12-15 21-15 3 0 5 0 8 1 36 12 59 46 59 84 1 52-39 90-93 90z"/>
<glyph unicode="&#80;" d="M419 320c0 48-40 87-88 87-18 0-35-5-49-15-8-5-10-16-5-23 5-8 16-10 24-5 9 6 20 9 30 9 30 0 54-24 54-54 0-9-2-17-6-25-4-8-1-18 8-22 1-1 4-2 7-2 6 0 12 3 15 9 6 12 10 27 10 41z m-88 114c9 0 17 7 17 17l0 32c0 9-8 17-17 17-10 0-17-8-17-17l0-32c0-9 7-17 17-17z m163-98l-32 0c-10 0-17-7-17-16 0-10 7-17 17-17l32 0c10 0 17 7 17 17 0 9-7 16-17 16z m-70 60c4 0 8 1 11 5l23 22c7 7 7 18 0 24-7 6-17 6-24 0l-22-23c-7-7-7-17 0-23 3-4 7-5 12-5z m11-157c-6 6-17 6-23 0-7-7-7-18 0-24l22-23c4-3 8-5 12-5 5 0 9 2 12 5 7 7 7 18 0 24z m-209 162c3-4 7-5 11-5 5 0 9 1 12 5 7 6 7 17 0 23l-22 23c-7 6-18 6-24 0-7-7-7-18 0-24z m64-112l-6 0c-3 9-6 19-12 29-18 35-51 54-93 54-41 0-74-19-92-54-6-11-9-22-12-31-44-8-74-43-74-88 0-25 10-48 27-65 9-8 23-8 32 1 8 9 8 23-1 32-8 9-13 20-13 32 0 27 20 45 49 45 12 0 22 10 23 22 0 6 3 63 61 63 25 0 42-10 53-29 9-16 10-34 10-34 0-12 11-21 22-21l26 0c29 0 49-18 49-45 0-20-12-36-30-42-12-4-18-17-14-29 3-10 12-15 21-15 2 0 5 0 8 1 36 12 59 45 59 84 1 51-39 90-93 90z m-108-122c9 0 17 7 17 16l0 16c0 10-8 17-17 17-10 0-17-7-17-17l0-16c0-9 7-16 17-16z m0-30c-6 0-12-3-16-7-5-5-7-10-7-16 0-6 2-12 7-16 4-3 10-6 16-6 6 0 12 2 15 6 5 5 7 11 7 16 0 6-2 12-7 16-3 4-10 7-15 7z m0-75c-10 0-17-7-17-17l0-16c0-9 7-17 17-17 9 0 17 8 17 17l0 16c0 10-8 17-17 17z m59 70c3 0 6 0 9 2l14 8c8 4 11 15 6 23-4 8-15 11-23 6l-14-8c-8-4-11-15-6-23 3-5 9-8 14-8z m-128-38l-14-8c-8-4-11-15-6-23 3-6 9-8 14-8 3 0 6 0 9 2l14 8c8 4 11 15 6 23-4 8-14 11-23 6z m151-8l-14 8c-8 4-19 2-23-6-5-8-2-19 6-23l14-8c3-2 6-2 8-2 6 0 12 2 15 8 5 8 2 19-6 23z m-164 56l14-8c2-2 5-2 8-2 6 0 11 2 15 8 4 8 1 19-6 23l-15 8c-7 5-18 2-23-6-4-8-2-18 7-23z"/>
<glyph unicode="&#81;" d="M326 321l-6 0c-2 9-5 19-11 30-19 35-52 54-93 54-42 0-75-19-93-54-5-11-9-22-11-31-44-8-74-43-74-89 0-25 9-47 26-64 9-8 23-8 32 1 9 9 9 23 0 32-9 8-13 19-13 32 0 27 19 45 49 45 12 0 22 9 22 22 0 6 4 62 61 62 25 0 43-9 53-28 9-17 11-34 11-34 0-12 10-22 22-22l25 0c30 0 49-18 49-45 0-19-11-35-30-42-11-4-18-17-14-29 4-9 12-15 22-15 2 0 5 1 7 1 37 13 60 46 60 85 0 52-39 89-94 89z m46 146c-30 0-59-14-79-37-6-7-5-18 2-24 8-6 18-5 24 2 13 16 32 25 53 25 38 0 69-31 69-68 0-17-6-32-17-45-6-7-5-18 2-23 4-3 8-4 11-4 5 0 10 2 13 6 16 18 24 42 24 66 0 56-46 102-102 102z m-154-268c10 0 17 7 17 17l0 16c0 9-7 17-17 17-9 0-17-8-17-17l0-16c0-9 8-17 17-17z m0-29c-6 0-12-2-15-7-4-4-7-10-7-16 0-6 2-11 7-15 4-4 10-7 15-7 6 0 12 2 16 7 5 4 7 10 7 15 0 6-2 12-7 16-4 4-10 7-16 7z m0-75c-9 0-17-7-17-17l0-16c0-10 8-17 17-17 10 0 17 7 17 17l0 16c0 9-8 17-17 17z m66 109l-14-8c-8-4-11-15-7-23 4-5 9-8 15-8 3 0 6 0 8 2l14 8c8 4 11 15 7 23-5 8-16 11-23 6z m-134-77l-14-8c-8-4-11-15-7-23 4-5 9-8 15-8 3 0 6 0 8 2l15 8c7 4 10 15 6 23-5 8-15 11-23 6z m150-8l-14 8c-7 5-18 2-23-6-4-8-1-19 7-23l14-8c2-2 5-2 8-2 6 0 11 3 15 8 4 8 1 19-7 23z m-164 56l14-8c3-2 6-2 9-2 5 0 11 3 14 8 5 8 2 19-6 23l-14 8c-8 5-19 2-23-6-5-8-2-19 6-23z"/>
<glyph unicode="&#82;" d="M290 240l-6 0c-3 9-6 19-12 30-18 35-51 54-93 54-41 0-74-19-92-54-6-11-9-22-12-31-43-8-74-43-74-89 0-45 33-81 78-89 2 0 5-1 7-1l204 0c53 0 94 39 94 90 0 53-40 90-94 90z m0-135l-195 0c-34 0-49 23-49 45 0 27 20 45 49 45 12 0 22 10 23 22 0 0 0 18 9 34 10 19 28 29 52 29 25 0 42-10 53-29 9-16 10-34 10-34 0-12 11-21 22-21l26 0c29 0 49-18 49-45 0-22-15-46-49-46z m128 166c0 49-39 88-88 88-17 0-35-5-49-15-8-5-9-16-4-24 5-8 16-9 23-4 9 6 20 9 31 9 30 0 54-25 54-54 0-9-2-18-6-25-5-9-1-19 7-23 2-1 5-1 8-1 6 0 12 3 15 9 6 12 9 26 9 40z m-88 115c10 0 17 7 17 17l0 32c0 9-7 17-17 17-9 0-17-8-17-17l0-32c0-10 8-17 17-17z m164-98l-33 0c-9 0-17-7-17-17 0-9 8-17 17-17l32 0c10 0 17 8 17 17 1 10-7 17-16 17z m-71 59c5 0 9 2 12 5l22 23c7 6 7 17 0 23-6 7-17 7-23 0l-23-22c-6-7-6-18 0-24 4-3 8-5 12-5z m12-157c-7 7-18 7-24 0-6-7-6-17 0-23l23-23c3-3 8-5 12-5 4 0 8 2 11 5 7 7 7 17 0 24z m-209 162c3-3 7-5 11-5 5 0 9 2 12 5 7 7 7 18 0 24l-22 22c-7 7-18 7-24 0-7-6-7-17 0-23z"/>
<glyph unicode="&#83;" d="M326 273l-6 0c-2 9-5 20-11 30-19 35-52 54-93 54-42 0-75-19-93-54-5-11-9-22-11-31-44-8-74-43-74-89 0-46 32-81 77-88 3-1 5-2 8-2l203 0c54 0 94 39 94 90 0 53-39 90-94 90z m0-135l-194 0c-34 0-49 23-49 45 0 27 19 45 49 45 12 0 22 10 22 22 0 7 4 63 61 63 25 0 43-10 53-29 9-16 11-34 11-34 0-11 10-21 22-21l25 0c30 0 49-18 49-45 0-23-15-46-49-46z m46 281c-30 0-59-14-79-38-6-7-5-18 2-23 8-6 18-5 24 2 13 16 32 25 53 25 38 0 69-31 69-69 0-16-6-32-17-44-6-8-5-18 2-24 4-3 8-4 11-4 5 0 10 2 13 6 16 19 24 43 24 67 0 55-46 102-102 102z"/>
<glyph unicode="&#84;" d="M286 340c-18 0-36-7-49-20-8-9-7-23 2-32 9-9 23-8 32 1 4 4 9 6 15 6 12 0 21-9 21-21 0-12-9-21-21-21l-245 0c-13 0-23-11-23-23 0-12 10-22 23-22l245 0c36 0 66 29 66 66 0 37-30 66-66 66z m-85-168l-160 0c-13 0-23-10-23-22 0-13 10-23 23-23l159 0c12 0 22-9 22-21 0-12-10-22-22-22-6 0-11 3-15 7-9 9-23 10-33 1-9-8-9-22-1-32 13-13 30-21 49-21 36 0 66 30 66 67 1 36-29 66-65 66z m199 216l-6 0c-2 9-6 19-11 30-19 35-52 54-93 54-42 0-75-19-93-54-6-11-9-22-11-31-42-8-71-39-74-81-1-13 8-24 21-25 12-1 23 9 24 21 2 25 21 41 48 41 13 0 22 10 23 22 0 6 3 63 61 63 25 0 42-10 53-29 9-16 10-34 10-34 1-12 11-21 23-21l25 0c29 0 49-18 49-45 0-22-15-45-49-45-12 0-22-10-22-23 0-12 10-22 22-22 53 0 94 39 94 90 0 51-39 89-94 89z"/>
<glyph unicode="&#85;" d="M401 344l-6 0c-2 9-6 19-11 30-19 35-51 54-93 54-52 0-89-29-103-80-3-12 4-24 17-27 12-4 24 4 27 16 13 47 48 47 59 47 25 0 42-10 53-29 9-16 10-34 10-34 0-12 11-21 22-21l26 0c29 0 49-18 49-45 0-22-16-45-49-45l-362 0c-12 0-23-10-23-23 0-12 11-22 23-22l361 0c53 0 94 39 94 90 0 52-40 89-94 89z m-304-99l189 0c12 0 22 10 22 23 0 12-10 22-22 22l-189 0c-12 0-22-10-22-22 0-13 10-23 22-23z m269-116l-236 0c-12 0-23-10-23-23 0-12 11-22 23-22l236 0c13 0 23 10 23 22 0 13-10 23-23 23z"/>
<glyph unicode="&#86;" d="M325 277l-4 0c-2 8-5 16-10 25-16 29-43 46-78 46-43 0-75-25-86-68-3-10 3-21 14-24 11-3 21 3 24 14 10 38 39 38 48 38 47 0 52-42 52-51 0-11 9-18 19-18l22 0c24 0 40-15 40-37 0-17-13-37-40-37l-303 0c-11 0-20-9-20-19 0-11 9-20 20-20l302 0c45 0 79 33 79 76 0 43-33 75-79 75z m-254-84l157 0c11 0 20 9 20 20 0 10-9 19-20 19l-157 0c-11 0-20-9-20-19 0-11 9-20 20-20z m225-96l-198 0c-10 0-19-9-19-19 0-11 9-20 19-20l198 0c11 0 20 9 20 20 0 10-9 19-20 19z m210 202c-4 4-9 7-14 7-31-3-60 12-75 39-15 26-14 60 3 84 4 5 4 11 1 16-2 5-7 8-13 8-21 2-43-4-63-15-26-15-45-40-54-70-2-8 3-17 11-19 9-2 17 2 19 11 6 21 21 39 40 51 6 4 13 6 20 8-10-30-7-63 9-90 16-28 44-47 74-53-5-5-11-10-17-14-7-4-14-7-21-8-9-3-13-11-11-19 1-7 8-12 15-12 1 0 3 0 4 1 10 3 19 7 28 12 20 11 35 27 46 46 1 6 1 12-2 17z"/>
<glyph unicode="&#87;" d="M324 277l-4 0c-2 8-5 16-10 25-16 29-43 46-78 46-44 0-75-25-86-68-3-10 3-21 14-24 10-3 21 3 24 14 10 38 39 38 48 38 47 0 52-42 52-51 0-11 9-18 19-18l22 0c24 0 40-15 40-37 0-17-13-37-40-37l-303 0c-11 0-20-9-20-19 0-11 9-20 20-20l302 0c45 0 79 33 79 76 0 43-33 75-79 75z m100-9c6 11 9 22 9 34 0 41-34 75-75 75-15 0-29-5-42-13-7-5-9-15-4-21 5-8 15-9 22-4 7 5 15 7 24 7 25 0 44-20 44-44 0-7-1-14-5-20-4-7-1-17 7-21 2-1 4-2 7-2 5 0 10 4 13 9z m-66 129c8 0 16 6 16 15l0 27c0 8-7 16-16 16-9 0-16-7-16-16l0-27c0-9 7-15 16-15z m136-79l-27 0c-8 0-16-7-16-16 0-8 7-16 16-16l27 0c8 0 16 7 16 16 0 9-8 16-16 16z m-59 46c4 0 8 2 11 5l19 19c6 6 6 15 0 22-6 6-16 6-22 0l-19-20c-7-6-7-15 0-21 3-3 7-5 11-5z m11-128c-6 6-16 6-22 0-6-6-6-16 0-22l19-19c3-3 7-5 11-5 4 0 8 2 11 5 6 6 6 15 0 22z m-176 133c2-3 6-4 10-4 4 0 8 1 11 4 6 6 6 16 0 22l-19 19c-6 6-16 6-22 0-6-6-6-16 0-22z m-200-176l158 0c11 0 20 9 20 20 0 10-9 19-20 19l-158 0c-10 0-19-9-19-19 0-12 8-20 19-20z m225-96l-198 0c-10 0-19-9-19-19 0-11 9-20 19-20l198 0c11 0 20 9 20 20 0 10-9 19-20 19z"/>
<glyph unicode="&#88;" d="M354 306l-4 0c-2 7-5 15-10 24-15 30-43 46-78 46-43 0-75-25-86-68-3-10 3-21 14-24 11-3 22 4 24 14 10 38 39 38 49 38 46 0 51-42 51-51 1-10 9-18 20-18l20 0c25 0 40-15 40-37 0-17-12-36-40-36l-301 0c-11 0-20-9-20-20 0-11 9-20 20-20l301 0c45 0 80 33 80 76 0 43-33 76-80 76z m-253-85l157 0c11 0 20 9 20 19 0 11-9 20-20 20l-157 0c-11 0-20-9-20-20 0-10 9-19 20-19z m225-96l-198 0c-10 0-19-9-19-20 0-10 9-19 19-19l198 0c10 0 19 9 19 19 0 11-9 20-19 20z m66 301c-26 0-50-11-66-30-6-7-5-17 2-22 7-6 16-5 22 2 11 13 26 20 43 20 31 0 55-25 55-56 0-13-4-25-13-36-5-6-4-16 2-22 3-2 6-3 10-3 5 0 9 1 12 5 13 16 20 36 20 56 0 47-39 86-87 86z"/>
<glyph unicode="&#89;" d="M228 274c-16 0-31-7-41-18-8-8-7-20 1-28 8-7 20-6 27 2 4 3 8 5 13 5 9 0 17-8 17-17 0-9-8-17-17-17l-205 0c-11 0-20-9-20-20 0-11 9-20 20-20l204 0c31 0 57 26 57 57 0 31-25 56-56 56z m-72-140l-133 0c-11 0-20-9-20-20 0-10 9-19 20-19l133 0c9 0 17-8 17-17 0-9-7-17-17-17-4 0-9 1-12 5-7 8-20 8-28 1-7-7-8-20-1-28 11-11 26-18 41-18 31 0 57 26 57 57 0 31-26 56-57 56z m167 180l-5 0c-1 7-4 16-9 25-16 29-43 45-78 45-35 0-63-16-79-45-4-9-7-19-9-26-35-7-59-33-62-69-1-11 7-20 18-21 11 0 20 8 21 18 2 21 17 34 40 34 10 0 19 8 19 19 0 0 1 13 8 26 8 16 22 24 43 24 20 0 34-8 43-23 8-14 9-28 9-28 0-11 9-18 20-18l21 0c24 0 40-15 40-37 0-17-12-37-40-37-11 0-20-9-20-19 0-11 9-20 20-20 45 0 79 33 79 76 0 44-33 76-79 76z m183 21c-4 5-9 8-14 7-31-2-60 13-75 39-15 27-14 60 3 85 4 4 4 11 1 16-2 5-7 8-13 8-21 1-43-4-63-16-26-15-45-40-54-69-2-9 3-17 11-20 9-2 17 3 19 11 6 22 21 40 40 51 6 4 13 7 20 9-10-29-7-62 9-90 16-27 43-46 74-53-5-5-12-9-18-13-7-4-13-7-21-9-8-2-13-10-11-19 2-6 8-11 15-11 1 0 3 0 4 1 10 2 20 6 29 11 19 12 35 27 45 47 2 5 2 11-1 15z"/>
<glyph unicode="&#90;" d="M423 304c6 11 9 23 9 35 0 41-34 75-75 75-15 0-30-5-42-13-7-5-9-15-4-22 5-7 15-9 22-4 7 5 15 8 24 8 24 0 44-20 44-44 0-8-2-14-5-21-4-7-1-16 7-20 2-1 4-2 7-2 5 0 10 3 13 8z m-66 129c8 0 15 6 15 15l0 27c0 8-6 16-15 16-9 0-16-7-16-16l0-27c0-9 7-15 16-15z m136-79l-27 0c-9 0-16-7-16-16 0-8 7-16 16-16l27 0c8 0 16 7 16 16 0 9-7 16-16 16z m-59 47c4 0 8 1 11 4l19 19c6 6 6 16 0 22-6 6-16 6-22 0l-19-19c-6-6-6-16 0-22 3-3 7-4 11-4z m11-129c-6 7-16 7-22 0-6-6-6-15 0-22l19-19c3-3 7-4 11-4 4 0 8 1 11 4 6 6 6 16 0 22z m-177 133c3-3 7-4 11-4 4 0 8 1 11 4 6 6 6 16 0 22l-19 19c-7 6-16 6-22 0-7-6-7-16 0-22z m-40-131c-15 0-31-7-41-18-8-8-7-20 1-28 8-7 20-6 27 2 4 3 8 5 13 5 9 0 17-8 17-17 0-9-8-17-17-17l-205 0c-11 0-20-9-20-20 0-11 9-20 20-20l204 0c31 0 57 26 57 57 0 31-25 56-56 56z m-72-140l-133 0c-11 0-20-9-20-20 0-10 9-19 20-19l133 0c9 0 17-8 17-17 0-9-7-17-17-17-4 0-9 1-12 5-7 8-20 8-28 1-7-7-8-20-1-28 11-11 26-18 41-18 31 0 57 26 57 57 0 31-26 56-57 56z m167 180l-5 0c-1 7-4 16-9 25-16 29-43 45-78 45-35 0-63-16-79-45-4-9-7-19-9-26-35-7-59-33-62-69-1-11 7-20 18-21 11 0 20 8 21 18 2 21 17 34 40 34 10 0 19 8 19 19 0 0 1 13 8 26 8 16 22 24 43 24 20 0 34-8 43-23 8-14 9-28 9-28 0-11 9-18 20-18l21 0c24 0 40-15 40-37 0-17-12-37-40-37-11 0-20-9-20-19 0-11 9-20 20-20 45 0 79 33 79 76 0 44-33 76-79 76z"/>
<glyph unicode="&#48;" d="M258 302c-16 0-30-7-41-18-7-8-7-20 1-27 8-8 21-7 28 1 3 3 7 5 12 5 9 0 17-8 17-17 0-9-7-17-17-17l-204 0c-11 0-20-9-20-20 0-10 9-19 20-19l204 0c31 0 57 25 57 56 0 31-26 56-57 56z m-71-141l-133 0c-11 0-20-9-20-19 0-11 9-20 20-20l133 0c9 0 17-7 17-17 0-9-7-17-17-17-4 0-9 2-12 5-7 8-20 9-28 2-7-8-8-20-1-28 11-11 26-18 41-18 31 0 57 25 57 56 0 31-26 56-57 56z m167 181l-5 0c-1 7-4 15-9 24-16 30-43 46-78 46-35 0-63-16-79-46-4-9-7-18-9-26-35-6-59-32-62-68-1-11 7-21 18-21 11-1 20 7 21 18 1 20 17 33 40 33 10 0 19 9 19 19 0 0 1 14 8 27 8 16 22 24 43 24 20 0 34-8 43-24 8-13 9-27 9-27 0-11 9-19 20-19l21 0c24 0 40-14 40-36 0-18-13-37-40-37-11 0-20-9-20-20 0-10 9-19 20-19 45 0 79 32 79 76 0 43-34 76-79 76z m37 120c-26 0-50-11-66-30-6-7-5-17 2-22 7-6 16-5 22 2 11 13 26 20 43 20 31 0 55-25 55-56 0-13-4-25-13-36-5-6-4-16 2-22 3-2 6-3 10-3 5 0 9 1 12 5 13 16 20 36 20 56 0 48-39 86-87 86z"/>
<glyph unicode="&#49;" d="M290 287l-6 0c-3 9-6 19-12 30-18 35-51 54-93 54-41 0-74-19-92-54-6-11-9-23-12-32-43-8-74-43-74-88 0-46 33-82 78-89 2-1 5-1 7-1l204 0c53 0 94 39 94 90 0 52-40 90-94 90z m0-135l-195 0c-34 0-49 23-49 45 0 27 20 45 49 45 12 0 22 9 23 22 0 6 3 62 61 62 25 0 42-9 53-28 9-17 10-34 10-34 0-12 11-22 22-22l26 0c29 0 49-18 49-45 0-22-15-45-49-45z m154 195l-3 0c-2 6-4 13-8 20-13 25-37 38-66 38-29 0-53-13-65-38-9-18-10-34-10-37 0-9 7-17 16-17 9-1 17 7 18 16 0 7 4 42 41 42 39 0 43-35 43-42 0-9 7-16 16-16l18 0c20 0 33-12 33-30 0-15-11-30-33-30l-20 0c-10 0-17-7-17-17 0-9 7-17 17-17l20 0c38 0 66 28 66 64 1 37-27 64-66 64z"/>
<glyph unicode="&#50;" d="M290 214l-6 0c-3 9-6 19-12 30-18 35-51 54-93 54-41 0-74-19-92-54-6-11-9-22-12-31-43-8-74-43-74-89 0-46 33-81 78-89 2 0 5-1 7-1l204 0c53 0 94 39 94 90 0 53-40 90-94 90z m0-135l-195 0c-34 0-49 23-49 45 0 27 20 45 49 45 12 0 22 10 23 22 0 0 0 18 9 34 10 19 28 29 52 29 25 0 42-10 53-29 9-16 10-34 10-34 0-12 11-21 22-21l26 0c29 0 49-18 49-45 0-22-15-46-49-46z m154 196l-3 0c-2 6-4 13-8 20-13 25-37 38-66 38-10 0-19-2-28-4-29-2-55 14-70 39-15 26-14 59 3 84 4 5 4 12 1 17-2 5-8 9-14 9-23 1-45-4-64-16-46-26-69-80-56-131 2-9 11-15 20-13 9 3 15 12 13 21-9 36 7 75 40 94 5 3 11 6 18 8-9-30-7-63 9-90 15-26 38-44 65-52-1-1-2-3-3-5-9-17-10-34-10-36 0-9 7-17 17-18 9 0 17 7 17 17 1 7 4 42 42 42 38 0 42-36 42-42 1-9 8-17 17-17l17 0c20 0 33-12 33-30 0-14-10-29-33-29l-20 0c-9 0-17-8-17-17 0-10 8-17 17-17l20 0c38 0 67 27 67 63 1 38-27 65-66 65z"/>
<glyph unicode="&#51;" d="M290 191l-6 0c-3 9-6 19-12 30-18 35-51 54-93 54-41 0-74-19-92-54-6-11-9-22-12-31-43-8-74-43-74-88 0-46 33-82 78-89 2-1 5-1 7-1l204 0c53 0 94 39 94 90 0 52-40 89-94 89z m0-134l-195 0c-34 0-49 23-49 45 0 27 20 45 49 45 12 0 22 9 23 22 0 0 0 17 9 34 10 19 28 28 52 28 25 0 42-9 53-28 9-17 10-34 10-34 0-12 11-22 22-22l26 0c29 0 49-18 49-45 0-22-15-45-49-45z m154 194l-3 0c-2 7-4 13-8 21-13 25-37 38-66 38-4 0-7 0-11-1-7 49-48 86-98 86-45 0-85-31-95-75-3-9 3-18 12-21 9-2 18 4 20 13 7 29 33 49 63 49 35 0 64-28 64-64-9-6-16-15-22-25-9-18-9-35-9-37 0-9 7-17 16-17 9-1 17 6 18 16 0 7 4 42 41 42 39 0 42-35 42-42 1-9 8-16 17-16l18 0c19 0 32-12 32-30 0-15-10-30-32-30l-20 0c-10 0-17-7-17-17 0-9 7-17 17-17l20 0c37 0 66 28 66 64 2 36-26 63-65 63z m-185 179c9 0 17 7 17 17l0 36c0 10-8 17-17 17-10 0-17-7-17-17l0-36c0-10 7-17 17-17z m-187-150l37 0c9 0 16 7 16 17 0 9-7 16-16 16l-37 0c-10 0-17-7-17-16 0-10 7-17 17-17z m293 106c5 0 9 2 12 5l26 26c7 7 7 17 0 24-7 6-18 6-24 0l-26-26c-6-7-6-18 0-24 3-3 8-5 12-5z m-224 5c3-3 8-5 11-5 5 0 9 2 12 5 7 7 7 17 0 24l-26 26c-6 6-17 6-23 0-7-7-7-18 0-24z"/>
<glyph unicode="&#52;" d="M290 236l-6 0c-3 9-6 19-12 30-18 34-51 54-93 54-41 0-74-20-92-54-6-12-9-23-12-32-43-8-74-43-74-88 0-46 33-82 78-89 2 0 5-1 7-1l204 0c53 0 94 39 94 90 0 52-40 90-94 90z m0-135l-195 0c-34 0-49 23-49 45 0 27 20 45 49 45 12 0 22 9 23 22 0 6 3 62 61 62 25 0 42-9 53-29 9-16 10-33 10-33 0-12 11-22 22-22l26 0c29 0 49-18 49-45 0-22-15-45-49-45z m154 195l-3 0c-2 6-4 13-8 20-12 22-31 35-55 38-9 58-59 102-120 102-56 0-104-38-117-93-3-9 3-18 12-20 9-2 18 4 20 13 10 39 44 67 85 67 42 0 78-30 85-71-18-6-33-18-42-36-9-17-10-34-10-36 0-9 7-17 17-18 0 0 0 0 0 0 9 0 17 8 17 17 1 7 4 42 42 42 38 0 42-36 42-42 1-9 8-17 17-17l17 0c20 0 33-12 33-30 0-14-10-29-33-29l-20 0c-9 0-17-8-17-17 0-10 8-17 17-17l20 0c38 0 67 27 67 63 1 37-27 64-66 64z"/>
<glyph unicode="&#53;" d="M501 256c0 135-110 245-245 245-135 0-245-110-245-245 0-135 110-245 245-245 135 0 245 110 245 245z m-445 0c0 110 90 200 200 200 110 0 200-90 200-200 0-110-90-200-200-200-110 0-200 90-200 200z m324-16c7 2 10 9 10 16 0 7-4 14-10 16l-213 81c-8 3-16 0-20-6-2-3-4-6-4-10 0-4 2-7 4-11l58-70-58-70c-5-7-5-15 0-21 4-6 12-9 20-6z m-140 5c5 6 5 15 0 22l-26 32 112-43-112-43z"/>
<glyph unicode="&#54;" d="M256 501c-135 0-245-110-245-245 0-135 110-245 245-245 135 0 245 110 245 245 0 135-110 245-245 245z m0-445c-110 0-200 90-200 200 0 110 90 200 200 200 110 0 200-90 200-200 0-110-90-200-200-200z m16 324c-2 7-9 10-16 10-7 0-14-4-16-10l-81-213c-3-8 0-16 6-20 3-2 6-4 10-4 4 0 7 2 11 4l70 58 70-58c7-5 15-5 21 0 6 4 9 12 6 20z m-5-140c-6 5-15 5-22 0l-32-26 43 112 43-112z"/>
<glyph unicode="&#55;" d="M256 11c135 0 245 110 245 245 0 135-110 245-245 245-135 0-245-110-245-245 0-135 110-245 245-245z m0 445c110 0 200-90 200-200 0-110-90-200-200-200-110 0-200 90-200 200 0 110 90 200 200 200z m-16-324c2-7 9-10 16-10 7 0 14 4 16 10l81 213c3 8 0 16-6 20-3 2-6 4-10 4-4 0-7-2-11-4l-70-58-70 58c-7 5-15 5-21 0-6-4-9-12-6-20z m5 140c7-5 16-5 22 0l32 27-43-113-43 113z"/>
<glyph unicode="&#56;" d="M11 256c0-135 110-245 245-245 135 0 245 110 245 245 0 135-110 245-245 245-135 0-245-110-245-245z m445 0c0-110-90-200-200-200-110 0-200 90-200 200 0 110 90 200 200 200 110 0 200-90 200-200z m-324 16c-7-2-10-9-10-16 0-7 4-14 10-16l213-81c8-3 16 0 20 6 2 3 4 6 4 10 0 4-2 7-4 11l-58 70 58 70c5 7 5 15 0 21-4 6-12 9-20 6z m140-5c-5-7-5-16 0-22l27-32-113 43 113 43z"/>
<glyph unicode="&#57;" d="M469 145c-10 6-25 2-30-9-13-24-40-36-79-36-69 0-103 34-103 101l0 110c0 67 34 101 103 101 39 0 66-12 79-36 5-11 20-15 30-9 11 5 15 20 9 30-14 28-47 61-118 61-94 0-148-53-148-147l0-109c0-93 54-147 148-147 71 0 104 33 118 61 6 10 2 24-9 29z m-368 312c-44 0-70-29-70-78 0-49 26-78 70-78 21 0 69 8 69 78 0 49-26 78-69 78z m0-112c-11 0-25 0-25 34 0 33 14 33 25 33 10 0 24 0 24-33 0-34-14-34-24-34z"/>
<glyph unicode="&#33;" d="M480 432c-1 6-10 26-49 26l-196 0c-13 0-23-10-23-23l0-358c0-12 10-22 23-22 12 0 22 10 22 22l0 165 117 0c13 0 23 11 23 23 0 12-10 23-23 23l-117 0 0 124 173 0c6 0 9 0 11-1 4-5 10-8 18-8 2 0 3 0 6 0 12 4 18 16 15 29z m-379 25c-44 0-70-29-70-78 0-49 26-78 70-78 44 0 69 29 69 78 0 49-26 78-69 78z m0-112c-11 0-25 0-25 34 0 33 14 33 25 33 10 0 24 0 24-33 0-34-14-34-24-34z"/>
<glyph unicode="&#34;" d="M178 427c-11 3-24-4-27-16l-13-45c-3-12 4-24 16-28 2 0 4 0 6 0 10 0 19 6 22 16l12 46c3 12-4 24-16 27z m225 0c-11 3-24-4-27-16l-13-45c-3-12 4-24 16-28 2 0 4 0 6 0 10 0 19 6 22 16l12 46c4 12-4 24-16 27z m-135-84c-12 3-24-4-28-16l-12-46c-4-11 4-24 16-27 1-1 4-1 5-1 10 0 19 7 22 17l13 46c3 11-4 24-16 27z m-135-85c-12 4-24-4-28-16l-12-45c-4-12 4-24 16-28 1 0 4 0 5 0 10 0 19 7 22 17l13 45c3 12-4 24-16 27z m225 0c-12 4-24-4-28-16l-12-45c-3-12 4-24 16-28 1 0 4 0 5 0 10 0 19 7 22 17l13 45c3 12-4 24-16 27z m-135-84c-12 3-24-4-28-16l-12-45c-4-12 4-25 16-28 1-1 4-1 5-1 10 0 19 7 22 17l13 46c3 12-4 24-16 27z"/>
<glyph unicode="&#35;" d="M441 425c0 1-1 2-2 3 0 0 0 1 0 1-1 1-1 2-2 3 0 1-2 2-2 3 0 0-1 0-1 0-1 1-1 2-2 3 0 0 0 0-1 0-1 0-2 1-3 1 0 0 0 0 0 1-2 1-3 1-4 1 0 0 0 0-1 0-1 0-3 1-4 1 0 0 0 0 0 0-2 0-3 0-4-1 0 0 0 0 0 0-1 0-3 0-3 0l-332-121c-9-3-15-12-15-21 0-10 6-18 15-22l316-116 0-141c0-12 10-22 22-22 12 0 23 10 23 22l0 400c0 1 0 3-1 4 1 0 1 1 1 1z m-288-126l243 89 0-179z m266 159c7 0 14 3 19 8 5 5 9 13 9 20 0 7-3 15-9 20-5 5-12 8-19 8-8 0-15-3-20-8-5-5-9-13-9-20 0-7 3-15 9-20 5-5 12-8 20-8z"/>
<glyph unicode="&#36;" d="M105 331l269 0c13 0 23 11 23 23 0 12-10 22-23 22l-269 0c-12 0-22-10-22-22 0-12 10-23 22-23z m278-77c0 13-11 23-23 23l-337 0c-12 0-22-10-22-23 0-12 10-22 22-22l337 0c12 0 23 10 23 22z m106-76l-337 0c-12 0-23-10-23-23 0-12 11-22 23-22l337 0c12 0 22 10 22 22 0 13-10 23-22 23z m-48 151l1 0c14 0 26 11 26 25 0 14-12 25-26 25l-1 0c-14 0-25-11-25-25 0-14 11-25 25-25z"/>
<glyph unicode="&#37;" d="M179 429c-12 3-24-4-28-16l-37-141c-4-12 4-24 15-28 2 0 4 0 6 0 10 0 19 6 22 16l38 142c3 11-4 23-16 27z m-63-211c-6 0-12-3-18-8-4-4-7-11-7-18 0-6 3-13 7-18 5-4 12-7 18-7 7 0 14 3 18 7 5 5 8 12 8 18 0 7-3 13-8 18-5 5-11 8-18 8z m90-85c-6 0-13-2-18-7-4-4-7-11-7-18 0-7 3-13 7-18 5-4 12-7 18-7 7 0 13 3 18 7 5 5 8 11 8 18 0 7-3 14-8 18-4 5-11 7-18 7z m136 85c-7 0-13-3-18-8-5-4-8-11-8-18 0-6 3-13 8-18 4-4 11-7 18-7 6 0 13 3 18 7 4 5 7 12 7 18 0 7-3 14-7 18-6 5-12 8-18 8z m-72 126c-12 4-25-4-28-15l-38-142c-3-11 4-24 16-27 2-1 4-1 6-1 10 0 19 7 22 17l37 141c4 12-4 24-15 27z m134 85c-12 3-24-4-28-16l-37-141c-4-12 4-24 15-28 2 0 4 0 6 0 10 0 19 6 22 16l38 142c3 11-4 23-16 27z"/>
<glyph unicode="&#38;" d="M362 309c-3 6-9 10-15 10l-45 0 57 79c4 5 4 12 1 18-3 5-8 9-15 9l-115 0c-7 0-14-5-16-11l-64-167c-2-5-1-11 2-16 3-4 8-7 14-7l33 0-44-114c-3-8 0-17 7-21 3-1 6-2 9-2 5 0 10 2 12 6l176 198c4 5 6 12 3 18z m-143-125l20 51c2 5 1 11-2 15-4 5-9 8-14 8l-33 0 51 133 71 0-57-79c-4-5-4-12-1-18 3-5 8-9 15-9l40 0z"/>
<glyph unicode="&#39;" d="M270 82c-63 0-121 33-152 87-23 40-29 87-17 132 12 45 41 83 81 106 23 13 48 21 75 23 9 0 18-5 22-14 4-9 2-19-6-25-41-37-51-98-23-146 21-36 59-59 102-59 12 0 24 2 36 6 9 3 19 0 25-8 6-8 6-18 1-26-15-22-35-40-58-54-26-14-56-22-86-22z m-68 285c-29-18-49-45-58-77-9-33-4-68 13-99 23-40 66-64 112-64 21 0 43 5 62 15-50 7-95 36-121 80-25 45-28 99-8 145z"/>
<glyph unicode="&#40;" d="M266 73c-66 0-127 35-160 91-50 88-20 201 67 251 30 18 65 26 99 24 9 0 16-5 19-12 4-7 3-16-1-23-28-41-31-95-6-137 23-39 65-64 112-64 3 0 6 0 10 1 8 0 16-4 20-10 5-7 6-16 2-24-17-30-41-56-71-73-28-16-59-24-91-24z m-33 318c-13-3-25-8-37-15-66-38-89-123-51-189 25-43 71-69 121-69 24 0 47 6 69 18 12 7 22 15 31 25-50 9-94 39-120 84-26 45-30 98-13 146z"/>
<glyph unicode="&#41;" d="M257 80c-62 0-121 34-152 88-49 84-20 192 64 240 26 15 57 24 88 24 20 0 40-4 59-11 11-4 17-15 14-27-7-30-3-61 13-88 16-27 41-47 71-56 11-4 18-14 15-26-9-51-40-95-85-120-26-16-56-24-87-24z m0 307c-22 0-45-7-65-18-63-36-84-116-48-178 23-41 66-66 113-66 23 0 46 7 65 18 29 16 49 42 59 72-32 14-59 38-77 69-17 31-24 65-21 100-8 2-17 3-26 3z"/>
<glyph unicode="&#42;" d="M256 82c-96 0-174 78-174 174 0 96 78 174 174 174 96 0 174-78 174-174 0-96-78-174-174-174z m0 303c-71 0-129-58-129-129 0-71 58-129 129-129 71 0 129 58 129 129 0 71-58 129-129 129z"/>
<glyph unicode="&#43;" d="M338 192c-12-4-24-5-36-5-43 0-81 22-102 58-28 48-18 109 23 147 8 6 10 16 6 25-4 9-13 15-23 13-26-1-51-9-74-23-83-48-112-155-63-238 31-54 89-87 150-87 31 0 61 7 88 23 23 14 42 31 57 54 6 8 5 18-1 26-6 7-16 10-25 7z m-119-65c-46 0-88 24-112 64-35 61-15 139 45 176-19-46-17-100 9-145 25-44 70-73 121-80-19-10-41-15-63-15z m74 150c5 0 10 3 14 6 4 3 5 8 5 14 0 5-2 10-5 14-8 7-21 7-28 0-4-3-6-9-6-14 0-5 3-10 6-14 3-3 9-6 14-6z m78 147c-6 0-13-3-18-8-4-4-7-11-7-18 0-6 3-13 7-18 5-4 12-7 18-7 7 0 13 3 18 7 5 5 8 12 8 18 0 7-3 13-8 18-5 5-11 8-18 8z m89-145c-4 4-10 7-16 7-5 0-11-2-15-7-4-4-7-10-7-16 0-5 2-12 7-15 4-4 10-7 15-7 6 0 12 2 16 7 5 4 7 10 7 15 0 6-2 12-7 16z"/>
<glyph unicode="&#44;" d="M178 427c-11 3-24-4-27-16l-58-214c-4-12 4-24 16-28 2 0 4 0 6 0 10 0 19 7 22 17l57 213c3 13-3 25-16 28z m90-84c-11 3-24-4-27-16l-59-214c-3-12 4-25 16-28 2-1 4-1 6-1 10 0 19 7 22 17l58 214c3 12-4 25-16 28z m135 84c-11 3-24-4-27-16l-58-214c-3-12 4-24 16-28 2 0 4 0 6 0 10 0 19 7 22 17l57 213c4 13-3 25-16 28z"/>
<glyph unicode="&#45;" d="M274 411c-4 6-11 9-18 9-7 0-14-3-18-9-10-13-95-127-95-197 0-77 57-122 113-122 56 0 113 45 113 122 0 70-85 184-95 197z m-18-274c-33 0-68 27-68 77 0 37 40 104 68 146 32-47 68-111 68-146 0-50-35-77-68-77z"/>
<glyph unicode="&#46;" d="M256 333c12 0 23 10 23 22l0 23c0 12-11 22-23 22-12 0-23-10-23-22l0-23c0-13 11-22 23-22z m0-49c-7 0-15-3-20-8-5-5-8-13-8-20 0-7 3-15 8-20 5-5 13-8 20-8 7 0 15 3 20 8 5 5 8 13 8 20 0 7-3 15-8 20-5 5-13 8-20 8z m0-105c-12 0-23-10-23-22l0-23c0-12 11-22 23-22 12 0 23 10 23 22l0 23c0 13-11 22-23 22z m86 104c3 0 7 1 11 3l19 11c11 6 15 20 9 31-6 11-20 15-31 8l-20-11c-10-6-14-20-8-31 4-7 12-11 20-11z m-183-57l-19-11c-11-6-15-20-9-31 4-7 12-11 20-11 4 0 8 1 11 3l20 11c10 6 14 20 8 31-6 10-20 14-31 8z m213-11l-19 11c-11 6-25 2-31-8-6-11-2-25 8-31l20-11c3-3 7-3 11-3 8 0 15 4 20 11 6 11 2 25-9 31z m-190 110l-20 11c-11 6-25 3-31-9-6-11-3-24 9-30l19-12c4-2 8-3 11-3 8 0 16 4 20 12 6 11 2 24-8 31z"/>
<glyph unicode="&#47;" d="M256 380c-68 0-124-56-124-124 0-68 56-124 124-124 68 0 124 56 124 124 0 68-56 124-124 124z m0-203c-43 0-79 36-79 79 0 43 36 79 79 79 43 0 79-36 79-79 0-43-36-79-79-79z m0 244c12 0 23 10 23 22l0 46c0 12-11 22-23 22-12 0-23-10-23-22l0-46c0-13 11-22 23-22z m233-142l-46 0c-12 0-22-11-22-23 0-12 10-23 22-23l46 0c12 0 22 11 22 23 0 12-10 23-22 23z m-233-188c-12 0-23-10-23-22l0-46c0-12 11-22 23-22 12 0 23 10 23 22l0 46c0 13-11 22-23 22z m-165 165c0 12-10 23-22 23l-46 0c-12 0-22-11-22-23 0-12 10-23 22-23l46 0c13 0 22 11 22 23z m297 110c6 0 11 2 16 6l33 33c9 9 9 23 0 32-9 9-23 9-32 0l-33-32c-9-9-9-24 0-33 5-4 11-6 16-6z m16-226c-9 9-23 9-32 0-9-9-9-24 0-33l33-32c4-5 10-7 15-7 6 0 12 2 16 7 9 9 9 23 0 32z m-296 0l-33-33c-9-9-9-23 0-32 5-5 11-7 16-7 6 0 11 2 16 7l33 32c9 9 9 24 0 33-9 9-24 9-32 0z m0 232c4-4 10-6 16-6 5 0 11 2 16 6 9 9 9 24 0 33l-33 32c-9 9-23 9-32 0-9-9-9-23 0-32z"/>
<glyph unicode="&#58;" d="M322 421c12 0 22 10 22 22l0 46c0 12-10 22-22 22-13 0-23-10-23-22l0-46c0-13 10-22 23-22z m0-330c-13 0-23-10-23-22l0-46c0-12 10-22 23-22 12 0 22 10 22 22l0 46c0 13-10 22-22 22z m-165 165c0 12-10 23-23 23l-45 0c-12 0-23-11-23-23 0-12 11-23 23-23l45 0c13 0 23 11 23 23z m17-116l-33-33c-9-9-9-23 0-32 5-5 10-7 16-7 6 0 11 2 16 7l32 32c9 9 9 24 0 33-8 9-23 9-31 0z m0 232c4-4 10-6 16-6 5 0 11 2 15 6 9 9 9 24 0 33l-32 32c-9 9-23 9-32 0-9-9-9-23 0-32z m148 8c-68 0-124-56-124-124 0-68 56-124 124-124 68 0 124 56 124 124 0 68-56 124-124 124z m0-203c-43 0-79 36-79 79 0 43 36 79 79 79 4 0 9-1 13-1-22-19-36-46-36-78 0-31 14-59 36-78-4 0-9-1-13-1z"/>
<glyph unicode="&#59;" d="M256 364c12 0 23 10 23 23l0 45c0 12-11 23-23 23-12 0-23-11-23-23l0-45c0-13 11-23 23-23z m165-165c0-12 10-22 22-22l46 0c12 0 22 10 22 22 0 13-10 23-22 23l-46 0c-13 0-22-10-22-23z m-398-22l46 0c12 0 22 10 22 22 0 13-10 23-22 23l-46 0c-12 0-22-10-22-23 0-12 10-22 22-22z m365 132c6 0 11 2 16 7l33 32c9 9 9 23 0 32-9 9-23 9-32 0l-33-32c-9-9-9-23 0-32 5-5 11-7 16-7z m-280 7c5-5 10-7 16-7 5 0 11 2 16 7 9 9 9 23 0 32l-33 32c-9 9-23 9-32 0-9-9-9-23 0-32z m35-168c6-11 19-16 30-11 12 5 17 18 12 30-5 10-8 21-8 32 0 43 36 79 79 79 43 0 79-36 79-79 0-11-2-22-8-32-5-12 0-25 12-30 3-1 6-3 9-3 9 0 17 6 21 13 7 17 11 34 11 52 0 68-56 123-124 123-68 0-124-55-124-123 0-18 4-35 11-51z m346-46l-466 0c-12 0-22-10-22-22 0-12 10-23 22-23l466 0c12 0 22 11 22 23 0 12-10 22-22 22z"/>
<glyph unicode="&#60;" d="M256 330c12 0 23 10 23 22l0 46c0 12-11 22-23 22-12 0-23-10-23-22l0-46c0-13 11-22 23-22z m132-54c6 0 11 2 16 6l33 33c9 9 9 23 0 32-9 9-23 9-32 0l-33-32c-9-9-9-24 0-33 5-4 11-6 16-6z m-280 6c4-4 10-6 16-6 5 0 11 2 16 6 9 9 9 24 0 33l-33 32c-9 9-23 9-32 0-9-9-9-23 0-32z m381-145l-466 0c-12 0-22-10-22-23 0-12 10-22 22-22l466 0c12 0 22 10 22 22 0 13-10 23-22 23z m-337 33c12-3 25 4 28 16 9 35 41 59 77 59 36 0 67-24 76-59 3-10 12-17 22-17 2 0 4 0 6 1 11 3 19 15 16 27-14 55-64 93-120 93-56 0-106-38-120-93-4-12 3-24 15-27z"/>
<glyph unicode="&#61;" d="M256 364c12 0 23 10 23 23l0 45c0 12-11 23-23 23-12 0-23-11-23-23l0-45c0-13 11-23 23-23z m165-165c0-12 10-22 22-22l46 0c12 0 22 10 22 22 0 13-10 23-22 23l-46 0c-13 0-22-10-22-23z m-398-22l46 0c12 0 22 10 22 22 0 13-10 23-22 23l-46 0c-12 0-22-10-22-23 0-12 10-22 22-22z m365 132c6 0 11 2 16 7l33 32c9 9 9 23 0 32-9 9-23 9-32 0l-33-32c-9-9-9-23 0-32 5-5 11-7 16-7z m-280 7c5-5 10-7 16-7 5 0 11 2 16 7 9 9 9 23 0 32l-33 32c-9 9-23 9-32 0-9-9-9-23 0-32z m35-168c6-11 19-16 30-11 12 5 17 18 12 30-5 10-8 21-8 32 0 43 36 79 79 79 43 0 79-36 79-79 0-11-2-22-8-32-5-12 0-25 12-30 3-1 6-3 9-3 9 0 17 6 21 13 7 17 11 34 11 52 0 68-56 123-124 123-68 0-124-55-124-123 0-18 4-35 11-51z m346-46l-466 0c-12 0-22-10-22-22 0-12 10-23 22-23l466 0c12 0 22 11 22 23 0 12-10 22-22 22z m-245 137l-34-34c-7-7-7-18 0-24 7-7 17-7 23 0l23 23 23-23c3-3 7-5 11-5 5 0 9 2 12 5 7 7 7 18 0 24l-34 34c-7 6-17 6-24 0z"/>
<glyph unicode="&#62;" d="M256 364c12 0 23 10 23 23l0 45c0 12-11 23-23 23-12 0-23-11-23-23l0-45c0-13 11-23 23-23z m165-165c0-12 10-22 22-22l46 0c12 0 22 10 22 22 0 13-10 23-22 23l-46 0c-13 0-22-10-22-23z m-398-22l46 0c12 0 22 10 22 22 0 13-10 23-22 23l-46 0c-12 0-22-10-22-23 0-12 10-22 22-22z m365 132c6 0 11 2 16 7l33 32c9 9 9 23 0 32-9 9-23 9-32 0l-33-32c-9-9-9-23 0-32 5-5 11-7 16-7z m-280 7c5-5 10-7 16-7 5 0 11 2 16 7 9 9 9 23 0 32l-33 32c-9 9-23 9-32 0-9-9-9-23 0-32z m35-168c6-11 19-16 30-11 12 5 17 18 12 30-5 10-8 21-8 32 0 43 36 79 79 79 43 0 79-36 79-79 0-11-2-22-8-32-5-12 0-25 12-30 3-1 6-3 9-3 9 0 17 6 21 13 7 17 11 34 11 52 0 68-56 123-124 123-68 0-124-55-124-123 0-18 4-35 11-51z m346-46l-466 0c-12 0-22-10-22-22 0-12 10-23 22-23l466 0c12 0 22 11 22 23 0 12-10 22-22 22z m-210 120l-23-22-23 22c-6 7-17 7-23 0-7-7-7-17 0-23l34-35c4-3 8-5 12-5 4 0 8 2 12 5l34 35c7 6 7 17 0 23-6 6-17 6-23 0z"/>
<glyph unicode="&#63;" d="M313 190l0 251c0 32-25 57-57 57-32 0-57-26-57-57l0-251c-25-18-40-48-40-79 0-54 44-98 98-98 54 0 97 44 97 98 0 31-15 61-41 79z m-57 269c10 0 18-8 18-18l0-250-37 0 0 250c0 10 9 18 19 18z"/>
<glyph unicode="&#64;" d="M314 190l0 251c0 32-26 57-57 57-33 0-58-26-58-57l0-251c-25-18-40-48-40-79 0-54 44-98 98-98 54 0 98 44 98 98-1 31-16 61-41 79z m-58 269c10 0 18-8 18-18l0-158-37 0 0 158c1 10 9 18 19 18z"/>
<glyph unicode="&#91;" d="M314 190l0 251c0 32-26 57-57 57-33 0-58-26-58-57l0-251c-25-18-40-48-40-79 0-54 44-98 98-98 54 0 98 44 98 98-1 31-16 61-41 79z m-58 269c10 0 18-8 18-18l0-63-37 0 0 63c1 10 9 18 19 18z"/>
<glyph unicode="&#93;" d="M314 190l0 251c0 32-26 57-57 57-33 0-58-25-58-57l0-251c-25-18-40-48-40-79 0-54 44-98 98-98 54 0 98 44 98 98-1 31-16 61-41 79z"/>
<glyph unicode="&#94;" d="M100 433l260 0c12 0 23 10 23 22 0 13-11 23-23 23l-260 0c-12 0-22-10-22-23 0-12 10-22 22-22z m262-77c0 12-10 22-23 22l-259 0c-12 0-22-10-22-22 0-13 10-23 22-23l259 0c13 0 23 10 23 23z m48-77l-229 0c-13 0-23-10-23-22 0-13 10-23 23-23l229 0c13 0 23 10 23 23 0 12-10 22-23 22z m18 201l0 0c-14 0-26-11-26-25 0-14 12-25 26-25l1 0c14 0 25 11 25 25-1 14-12 25-26 25z m-75-302l-132 0c-13 0-23-10-23-23 0-12 10-22 23-22l132 0c13 0 23 10 23 22 0 13-10 23-23 23z m-91-101l-63 0c-13 0-23-11-23-23 0-12 10-22 23-22l63 0c12 0 22 10 22 22 0 12-10 23-22 23z"/>
<glyph unicode="&#95;" d="M256 511c-137 0-249-100-249-224 0-12 10-23 23-23 10 0 18 6 21 15 1 3 13 28 49 28 34 0 46-21 49-26 0-2 1-4 2-6 4-6 12-10 19-10 8 0 15 3 19 10 1 1 2 2 2 4 4 5 20 28 64 28 49 0 64-26 65-28 1-2 1-3 2-4 4-7 12-10 19-10 8 0 15 4 19 10 1 2 2 4 2 5 2 4 13 27 49 27 36 0 47-25 48-27 3-9 12-15 21-15 0 0 0 0 1 0 1 0 1 0 1 0 13 0 23 10 23 23 0 123-112 223-249 223z m154-159c-35 0-57-14-71-28-17 14-43 28-84 28-41 0-68-14-84-28-14 14-37 28-71 28-14 0-26-3-36-6 27 70 103 120 192 120 89 0 165-50 192-121-10 4-23 7-38 7z m-37-248c-12 0-22-10-22-22 0-20-17-36-36-36-20 0-36 16-36 36l0 171c0 12-11 22-23 22-12 0-23-10-23-22l0-171c0-45 37-81 82-81 44 0 81 36 81 81 0 12-11 22-23 22z"/>
<glyph unicode="&#96;" d="M297 1c-34 0-61 27-61 61l0 108c0 11 9 20 20 20 11 0 20-9 20-20l0-108c0-11 9-21 21-21 12 0 21 10 21 21 0 11 9 20 20 20 11 0 20-9 20-20 0-33-27-61-61-61z m-100 445c-2 0-3 0-5 0-11 3-17 14-14 24l7 26c2 11 13 17 24 14 10-3 17-13 14-24l-7-26c-2-9-11-14-19-14z m138 0c-1 0-3 0-5 0-10 3-17 14-14 24l7 26c3 11 13 17 24 14 11-3 17-13 14-24l-7-26c-2-9-10-14-19-14z m-76-44c-1 0-3 0-5 0-10 3-17 14-14 24l7 26c3 11 14 17 24 14 11-2 17-13 14-24l-6-26c-3-9-11-14-20-14z m134-31c-2 0-4 0-5 1-11 3-17 13-14 24l6 26c3 11 14 17 25 14 10-3 16-13 14-24l-7-26c-3-9-11-15-19-15z m-268 0c-2 0-3 0-5 1-11 3-17 13-14 24l7 26c2 11 13 17 24 14 10-3 17-13 14-24l-7-26c-2-9-11-15-19-15z m290-185c-9 0-16 5-19 13 0 1-8 17-30 17-20 0-28-11-30-16-2-8-10-14-19-14-6 0-13 4-17 9 0 1-1 2-1 3-2 3-14 18-43 18-28 0-39-13-42-17-3-8-10-13-18-13-7 0-13 4-17 9-1 1-2 3-2 5-2 4-10 16-31 16-23 0-30-15-30-17-3-8-10-12-19-12-10 0-19 9-19 19 0 49 24 96 66 126 32 23 71 36 112 36 41 0 80-13 112-36 42-31 66-77 66-126 0-11-9-20-19-20z m-159 69c28 0 47-9 59-18 11 9 27 18 51 18 6 0 13 0 18-2-8 18-22 34-39 47-25 18-56 28-89 28-33 0-64-10-89-28-17-13-31-29-39-47 5 1 12 2 18 2 24 0 40-9 51-18 12 9 31 18 59 18z"/>
<glyph unicode="&#123;" d="M278 246c-5 0-10-2-14-6-6-9-41-57-41-89 0-37 28-59 55-59 27 0 55 22 55 59 0 15-7 34-21 58-15 27-22 37-34 37z m-81 113c-3 4-9 7-14 7-5 0-10-3-13-7-7-9-29-40-29-62 0-29 21-46 42-46 22 0 43 17 43 46 0 22-22 53-29 62z m164 31c-7 12-12 20-22 20-5 0-10-2-14-7-5-7-19-27-19-42 0-22 16-35 32-35 16 0 33 13 33 35 0 8-3 17-10 29z"/>
<glyph unicode="&#124;" d="M412 410c-19 0-38-8-51-22-8-9-8-23 1-32 9-9 23-8 32 1 5 5 11 8 18 8 13 0 24-11 24-25 0-13-11-24-24-24l-359 0c-12 0-22-10-22-22 0-13 10-23 22-23l359 0c38 0 69 31 69 69 0 39-31 70-69 70z m-103-169l-256 0c-12 0-22-10-22-23 0-12 10-22 22-22l256 0c14 0 25-11 25-24 0-14-11-25-25-25-6 0-12 3-17 8-8 9-22 10-32 1-9-8-10-22-1-32 13-14 31-22 50-22 39 0 70 31 70 70-1 38-32 69-70 69z"/>
</font>
</defs>
</svg>
